<?xml version="1.0" standalone="no"?>
<!DOCTYPE svg PUBLIC "-//W3C//DTD SVG 1.1//EN" "http://www.w3.org/Graphics/SVG/1.1/DTD/svg11.dtd" >
<!--
2020-5-25: Created with FontForge (http://fontforge.org)
-->
<svg xmlns="http://www.w3.org/2000/svg" xmlns:xlink="http://www.w3.org/1999/xlink" version="1.1">
<metadata>
Created by FontForge 20170731 at Mon May 25 14:05:55 2020
 By root

</metadata>
<defs>
<font id="Flaticon" horiz-adv-x="512" >
  <font-face 
    font-family="Flaticon"
    font-weight="400"
    font-stretch="normal"
    units-per-em="512"
    panose-1="2 0 5 3 0 0 0 0 0 0"
    ascent="448"
    descent="-64"
    bbox="-0.00655822 -64.002 513.002 448.002"
    underline-thickness="25.6"
    underline-position="-51.2"
    unicode-range="U+0020-F160"
  />
    <missing-glyph />
    <glyph glyph-name="space" unicode=" " horiz-adv-x="200" 
 />
    <glyph glyph-name="086-search" unicode="&#xf155;" 
d="M322 448c104.766 0 190 -85.2344 190 -190c0 -32.9961 -8.59375 -65.5039 -24.8555 -94.0156c-5.47266 -9.59375 -17.6875 -12.9336 -27.2812 -7.46094c-9.59766 5.47266 -12.9375 17.6875 -7.46484 27.2812c12.8242 22.4805 19.6016 48.1367 19.6016 74.1953
c0 82.7109 -67.2891 150 -150 150s-150 -67.2891 -150 -150s67.2891 -150 150 -150c21.8711 0 42.9453 4.59766 62.6367 13.6602c10.0352 4.61719 21.9141 0.226562 26.5312 -9.80859c4.61719 -10.0312 0.226562 -21.9102 -9.80469 -26.5273
c-24.9766 -11.4961 -51.6758 -17.3242 -79.3633 -17.3242c-45.1953 0 -86.7461 15.8711 -119.398 42.3203l-32.1836 -32.1836c4.60938 -21.5469 -10.3867 -46.6445 -16.1719 -56.3281c-14.3047 -23.9336 -35.5898 -49.7969 -50.9297 -67.2812l-0.890625 -0.953125
c-11.332 -11.332 -26.3984 -17.5742 -42.4258 -17.5742s-31.0938 6.24219 -42.4258 17.5742s-17.5742 26.3984 -17.5742 42.4258s6.24219 31.0938 17.5742 42.4258l0.53125 0.53125l0.566406 0.488281c14.4023 12.3945 42.5625 35.4297 69.3359 50.457
c9.17188 5.14844 32.1797 18.0586 52.8281 15.2148l33.4844 33.4883c-26.4492 32.6484 -42.3203 74.1992 -42.3203 119.395c0 104.766 85.2344 190 190 190zM73.75 -18.5234c40.7461 46.5391 53.9102 72.7031 56.8359 83.4492
c-4.99609 -1.11719 -14.4492 -4.46484 -30.3281 -14.2188c-15.9844 -9.81641 -35.4336 -24.3672 -54.8359 -41.0156c-3.5 -3.72266 -5.42188 -8.55859 -5.42188 -13.6914c0 -5.34375 2.07812 -10.3633 5.85938 -14.1406c3.77734 -3.77734 8.79688 -5.85938 14.1406 -5.85938
c5.16016 0 10.0195 1.94141 13.75 5.47656zM73.75 -18.5234z" />
    <glyph glyph-name="001-energy" unicode="&#xf100;" 
d="M256 448c141.316 -0.158203 255.842 -114.684 256 -256c0 -141.384 -114.616 -256 -256 -256s-256 114.616 -256 256s114.616 256 256 256zM256 -46.9336c131.896 0.150391 238.783 107.038 238.934 238.934c0 131.958 -106.976 238.934 -238.934 238.934
s-238.934 -106.976 -238.934 -238.934s106.976 -238.934 238.934 -238.934zM256 -46.9336zM341.333 226.134c3.14648 0 6.04199 -1.7334 7.52539 -4.50879s1.32031 -6.1416 -0.424805 -8.7627l-102.4 -153.6c-2.08691 -3.12891 -5.97461 -4.52148 -9.5752 -3.42969
c-3.59961 1.08789 -6.05762 4.4043 -6.05762 8.16699v93.8662h-59.7334c-3.14648 0 -6.04199 1.7334 -7.52539 4.50879s-1.32031 6.1416 0.424805 8.7627l102.4 153.6c2.08691 3.12891 5.97461 4.52148 9.5752 3.42969c3.59961 -1.08789 6.05762 -4.4043 6.05762 -8.16699
v-93.8662h59.7334zM247.467 92.1582l77.917 116.908h-52.3174c-4.71191 0 -8.5332 3.82129 -8.5332 8.5332v74.2422l-77.917 -116.908h52.3174c4.71191 0 8.5332 -3.82129 8.5332 -8.5332v-74.2422zM247.467 92.1582z" />
    <glyph glyph-name="014-shapes-and-symbols" unicode="&#xf10d;" 
d="M114.818 -44.1016c-5.62109 0 -11.2021 1.75293 -15.9648 5.19727c-8.87305 6.43066 -13.0176 17.4834 -10.6025 28.1484l33.002 145.374l-111.922 98.1533c-8.22754 7.18164 -11.3701 18.5557 -7.99219 28.9619c3.37695 10.3877 12.5674 17.7422 23.4482 18.748
l148.086 13.4443l58.5479 137.014c4.31641 10.0664 14.1484 16.5674 25.0723 16.5674s20.7549 -6.50098 25.0723 -16.5439l58.5479 -137.037l148.062 -13.4443c10.9043 -0.982422 20.0947 -8.36035 23.4717 -18.748c3.37793 -10.3867 0.254883 -21.7803 -7.97266 -28.9619
l-111.921 -98.1338l33.002 -145.369c2.41797 -10.6895 -1.73047 -21.7422 -10.5996 -28.1533c-8.84863 -6.41113 -20.6494 -6.9043 -29.9688 -1.30273l-127.694 76.3086l-127.694 -76.3516c-4.31738 -2.56445 -9.12793 -3.87109 -13.9805 -3.87109zM256.493 68.9941
c4.85352 0 9.65918 -1.30371 13.9805 -3.86719l120.513 -72.0781l-31.1465 137.21c-2.22363 9.76465 1.0918 19.96 8.6377 26.5674l105.679 92.6807l-139.815 12.6963c-10.0664 0.919922 -18.7246 7.24902 -22.6582 16.5244l-55.1895 129.3l-55.2568 -129.319
c-3.88965 -9.21289 -12.5479 -15.542 -22.5908 -16.4619l-139.835 -12.6963l105.675 -92.6807c7.56934 -6.62695 10.8809 -16.8027 8.6377 -26.5908l-31.123 -137.206l120.513 72.0547c4.31738 2.56348 9.12695 3.86719 13.9805 3.86719zM171.741 291.276
c0 0 0 -0.0234375 -0.0234375 -0.0439453zM341.201 291.339l0.0234375 -0.0429688c0 0.0234375 0 0.0234375 -0.0234375 0.0429688zM341.201 291.339z" />
    <glyph glyph-name="070-idea" unicode="&#xf145;" 
d="M371.919 345.181c0 5.52246 4.47754 10 10 10c5.52344 0 10 -4.47754 10 -10c0 -5.52344 -4.47656 -10 -10 -10c-5.52246 0 -10 4.47656 -10 10zM72.0303 44.3711c0 5.52246 4.47656 10 10 10c5.52246 0 10 -4.47754 10 -10c0 -5.52344 -4.47754 -10 -10 -10
c-5.52344 0 -10 4.47656 -10 10zM449.696 420.204c18.541 -18.2842 28.752 -42.6934 28.752 -68.7295c0 -27.0869 -11.4893 -53.0947 -31.5225 -71.3525c-7.85742 -7.16211 -12.3643 -17.3154 -12.3643 -27.8584v-12.7656c0 -8.29102 -3.88574 -15.6865 -9.9248 -20.4795
v-29.0918c0 -13.5615 -11.0322 -24.5938 -24.5947 -24.5938h-36.2383c-13.5625 0 -24.5947 11.0322 -24.5947 24.5938v29.0908c-6.04004 4.79199 -9.9248 12.1885 -9.9248 20.4795v12.7656c0 10.5723 -4.45312 20.6777 -12.2168 27.7256
c-20.6436 18.7373 -32.1797 45.4756 -31.6514 73.3564c0.476562 25.0615 10.5986 48.6719 28.502 66.4844c17.9043 17.8096 41.5684 27.8105 66.6318 28.1602c26.0615 0.385742 50.6104 -9.50391 69.1465 -27.7852zM404.638 189.928v23.4297h-45.4287v-23.4297
c0 -2.5332 2.06152 -4.59375 4.59473 -4.59375h36.2383c2.5332 0 4.5957 2.06055 4.5957 4.59375v0zM433.454 294.904c15.8848 14.4766 24.9951 35.0957 24.9951 56.5703c0 20.6416 -8.0957 39.9932 -22.7949 54.4893c-14.4346 14.2344 -33.4775 22.0352 -53.7236 22.0352
c-0.369141 0 -0.733398 -0.00292969 -1.10156 -0.0078125c-40.8105 -0.568359 -74.6426 -34.2256 -75.417 -75.0254c-0.419922 -22.1084 8.72852 -43.3105 25.0977 -58.1689c11.9307 -10.8291 18.7744 -26.333 18.7744 -42.5332v-12.7656
c0 -3.38672 2.75488 -6.1416 6.14258 -6.1416h16.4961v72.2979c0 5.52148 4.47852 10 10 10c5.52246 0 10 -4.47852 10 -10v-72.2979h16.4961c3.3877 0 6.14258 2.75488 6.14258 6.1416v12.7656c0 16.1562 6.88672 31.6982 18.8926 42.6406zM507.45 114.099
c8.69434 -19.6963 -0.251953 -42.792 -19.9482 -51.4893l-133.042 -58.7402c-26.5195 -11.709 -56.6211 -11.0283 -82.582 1.87207l-48.7002 24.1934c-20.627 10.2471 -44.54 10.79 -65.6074 1.48633l-1.14844 -0.506836
c3.29688 -11.7969 -2.42578 -24.5654 -13.8643 -29.7725l-126.824 -64.0674c-1.42188 -0.717773 -2.96777 -1.07422 -4.50977 -1.07422c-1.8252 0 -3.64648 0.5 -5.25195 1.49023c-2.95996 1.82617 -4.75781 5.05859 -4.74805 8.53809l0.495117 175.302
c0.0117188 3.94922 2.34766 7.52344 5.96094 9.11816l64.8301 28.625c11.4541 5.05664 24.6797 0.886719 31.3242 -9.25879l50.7998 22.4287c28.8252 12.7275 60.9902 13.7549 90.5684 2.89258l97.9346 -35.9639c19.0312 -6.99023 29.1777 -28.2842 22.6143 -47.4668
c-5.33105 -15.583 -19.9873 -25.4297 -35.6279 -25.4297c-3.98145 0 -8.02441 0.637695 -11.9971 1.98145l-75.7314 25.6152c-5.23242 1.76953 -8.03906 7.44434 -6.26855 12.6768c1.76953 5.23145 7.44336 8.04004 12.6768 6.26855l75.7314 -25.6143
c9.15918 -3.09863 19.1621 1.8252 22.293 10.9746c3.07227 8.98047 -1.67676 18.9492 -10.5859 22.2207l-97.9336 35.9639c-24.6855 9.06543 -51.5352 8.20996 -75.5967 -2.41504l-50.4854 -22.29l36.3564 -82.3428l0.913086 0.402344
c26.5195 11.7119 56.6182 11.0273 82.583 -1.87012l48.7002 -24.1953c20.625 -10.248 44.5361 -10.79 65.6064 -1.48633l133.041 58.7412c9.60645 4.24023 13.9707 15.5078 9.72949 25.1123c-4.23145 9.58301 -15.4551 13.9482 -25.0459 9.75781l-64.9316 -29.9424
c-5.01465 -2.31348 -10.9561 -0.121094 -13.2686 4.89355c-2.31152 5.01562 -0.12207 10.9561 4.89453 13.2695l65.0127 29.9805c0.0478516 0.0224609 0.0976562 0.0449219 0.147461 0.0673828c19.6973 8.69434 42.79 -0.253906 51.4863 -19.9463zM134.214 19.3184
c2.65332 1.17188 3.85742 4.28223 2.68652 6.93457l-2.5752 5.83398c-0.00390625 0.00488281 -0.00585938 0.0107422 -0.00878906 0.015625l-46.7959 105.987c-1.1709 2.65234 -4.2793 3.85547 -6.93652 2.68652l-58.8867 -26.001l-0.243164 -86.6807l20.3574 9.99707
c4.95605 2.43457 10.9492 0.388672 13.3848 -4.56934c2.43359 -4.95703 0.388672 -10.9482 -4.56934 -13.3838l-29.2354 -14.3555l-0.12207 -43.5049l112.475 56.8174c0.154297 0.078125 0.311523 0.15332 0.469727 0.222656z" />
    <glyph glyph-name="020-null-3" unicode="&#xf113;" 
d="M437.016 373.016c99.9795 -99.9795 99.9795 -262.074 0 -362.03c-99.9785 -99.9805 -262.074 -99.9805 -362.028 -0.00195312c-99.9824 99.958 -99.9824 262.053 -0.00390625 362.03c99.958 99.9814 262.054 99.9814 362.032 0.00195312zM406.848 41.1562
c83.3145 83.2949 83.3145 218.372 -0.00195312 301.688c-83.3154 83.3174 -218.394 83.3174 -301.69 0c-83.3164 -83.3154 -83.3164 -218.394 0.00195312 -301.692c83.2949 -83.3145 218.373 -83.3145 301.69 0.00390625zM368.911 292.414
c8.33105 8.33105 21.8389 8.33105 30.1699 0s8.33105 -21.8389 0 -30.1699l-149.333 -149.333c-8.33105 -8.33105 -21.8389 -8.33105 -30.1699 0l-85.333 85.333c-8.33105 8.33105 -8.33105 21.8389 0 30.1699s21.8389 8.33105 30.1699 0l70.248 -70.248z" />
    <glyph glyph-name="090-photograph" unicode="&#xf159;" 
d="M432 -14h-352c-44.1133 0 -80 35.8867 -80 80v230c0 44.1133 35.8867 80 80 80h81.7734c4.27734 0 8.16797 2.52734 9.90625 6.43359l15.7617 35.4023c8.16016 18.3242 26.3945 30.1641 46.4531 30.1641h115.289c19.7227 0 37.8281 -11.5586 46.125 -29.4453
l16.8281 -36.2734c1.76953 -3.8125 5.63281 -6.28125 9.83984 -6.28125h10.0234c44.1133 0 80 -35.8867 80 -80v-130c0 -11.0469 -8.95312 -20 -20 -20s-20 8.95312 -20 20v130c0 22.0547 -17.9453 40 -40 40h-10.0234c-19.7227 0 -37.8242 11.5586 -46.125 29.4453
l-16.8281 36.2734c-1.76953 3.81641 -5.63281 6.28125 -9.83984 6.28125h-115.289c-4.28125 0 -8.16797 -2.52734 -9.91016 -6.43359l-15.7617 -35.4023c-8.16016 -18.3242 -26.3945 -30.1641 -46.4492 -30.1641h-81.7734c-22.0547 0 -40 -17.9453 -40 -40v-230
c0 -22.0547 17.9453 -40 40 -40h352c22.0547 0 40 17.9453 40 40c0 11.0469 8.95312 20 20 20s20 -8.95312 20 -20c0 -44.1133 -35.8867 -80 -80 -80zM420 191c0 -68.9258 -56.0742 -125 -125 -125s-125 56.0742 -125 125s56.0742 125 125 125s125 -56.0742 125 -125z
M380 191c0 46.8672 -38.1328 85 -85 85s-85 -38.1328 -85 -85s38.1328 -85 85 -85s85 38.1328 85 85zM95 187c-11.0469 0 -20 8.95312 -20 20s8.95312 20 20 20s20 -8.95312 20 -20s-8.95312 -20 -20 -20zM95 257c-11.0469 0 -20 8.95312 -20 20s8.95312 20 20 20
s20 -8.95312 20 -20s-8.95312 -20 -20 -20zM95 257z" />
    <glyph glyph-name="084-tag" unicode="&#xf153;" 
d="M326.949 305c0 22.0898 17.9062 40 40 40c22.0898 0 40 -17.9102 40 -40s-17.9102 -40 -40 -40c-22.0938 0 -40 17.9102 -40 40zM273.922 -34.707c-18.8906 -18.8906 -44.0039 -29.293 -70.7148 -29.293s-51.8242 10.4023 -70.7109 29.2891l-103.258 103.262
c-38.9648 38.9648 -38.9883 102.383 -0.046875 141.375l231.828 232.207c3.75 3.75391 8.84375 5.86719 14.1523 5.86719h156.777c44.1094 0 80 -35.8867 80 -80v-156.305c0 -5.30469 -2.10547 -10.3906 -5.85547 -14.1406l-99.3242 -99.3711
c-7.80859 -7.80859 -20.4727 -7.8125 -28.2852 -0.00390625s-7.81641 20.4727 -0.0078125 28.2852l93.4727 93.5117v148.023c0 22.0547 -17.9453 40 -40 40h-148.484l-225.969 -226.336c-23.3672 -23.3984 -23.3516 -61.4531 0.0273438 -84.832l103.258 -103.258
c11.332 -11.332 26.3984 -17.5742 42.4258 -17.5742s31.0938 6.24219 42.4258 17.5742l61.1875 61.1992c7.80859 7.8125 20.4727 7.81641 28.2852 0.00390625c7.80859 -7.80859 7.8125 -20.4688 0.00390625 -28.2812zM273.922 -34.707z" />
    <glyph glyph-name="096-portfolio" unicode="&#xf15f;" 
d="M492 128c-11.0469 0 -20 8.95312 -20 20v78.5469c-7.30469 -7.28516 -15.6914 -14.9492 -25.1953 -22.6172c-49.0352 -39.543 -107.039 -62.2461 -168.805 -66.2734v-27.6562c0 -11.0469 -8.95312 -20 -20 -20s-20 8.95312 -20 20v27.6523
c-61.8086 4.02344 -120.43 26.6719 -170.609 66.125c-10.3945 8.16797 -19.5195 16.3438 -27.3906 24.043v-179.82c0 -22.0547 17.9453 -40 40 -40h352c22.0547 0 40 17.9453 40 40c0 11.0469 8.95312 20 20 20s20 -8.95312 20 -20c0 -44.1133 -35.8867 -80 -80 -80h-352
c-44.1133 0 -80 35.8867 -80 80v238c0 44.1133 35.8867 80 80 80h82v2c0 44.1133 35.8867 80 80 80h26c44.1133 0 80 -35.8867 80 -80v-2h84c44.1133 0 80 -35.8867 80 -80v-138c0 -11.0469 -8.95312 -20 -20 -20zM202 368v-2h106v2c0 22.0547 -17.9453 40 -40 40h-26
c-22.0547 0 -40 -17.9453 -40 -40zM258 177c128.652 0 199.148 89.8242 213.949 110.969c-1.02734 21.1445 -18.5547 38.0312 -39.9492 38.0312h-352c-21.3125 0 -38.7812 -16.7578 -39.9375 -37.7852c6.91016 -9.39844 24.8125 -31.8047 53.2031 -53.8945
c48.8789 -38.0352 104.305 -57.3203 164.734 -57.3203zM258 177z" />
    <glyph glyph-name="010-interface" unicode="&#xf109;" 
d="M453.332 -64h-394.664c-32.3633 0 -58.668 26.3047 -58.668 58.668v352c0 32.3633 26.3047 58.6641 58.668 58.6641h394.664c32.3633 0 58.668 -26.3008 58.668 -58.6641v-352c0 -32.3633 -26.3047 -58.668 -58.668 -58.668zM58.668 373.332
c-14.6992 0 -26.668 -11.9648 -26.668 -26.6641v-352c0 -14.6992 11.9688 -26.668 26.668 -26.668h394.664c14.6992 0 26.668 11.9688 26.668 26.668v352c0 14.6992 -11.9688 26.6641 -26.668 26.6641h-394.664zM58.668 373.332zM496 245.332h-480
c-8.83203 0 -16 7.16797 -16 16s7.16797 16 16 16h480c8.83203 0 16 -7.16797 16 -16s-7.16797 -16 -16 -16zM496 245.332zM122.668 320c-8.83203 0 -16 7.16797 -16 16v96c0 8.83203 7.16797 16 16 16s16 -7.16797 16 -16v-96c0 -8.83203 -7.16797 -16 -16 -16z
M122.668 320zM389.332 320c-8.83203 0 -16 7.16797 -16 16v96c0 8.83203 7.16797 16 16 16s16 -7.16797 16 -16v-96c0 -8.83203 -7.16797 -16 -16 -16zM389.332 320z" />
    <glyph glyph-name="071-user-1" unicode="&#xf146;" 
d="M256 448c74.4395 0 135 -60.5605 135 -135s-60.5605 -135 -135 -135s-135 60.5605 -135 135s60.5605 135 135 135zM256 208c57.8975 0 105 47.1025 105 105s-47.1025 105 -105 105s-105 -47.1025 -105 -105s47.1025 -105 105 -105zM423.966 89.8047
c36.7793 -37.3438 57.0342 -86.6377 57.0342 -138.805c0 -8.28418 -6.71582 -15 -15 -15h-420c-8.28418 0 -15 6.71582 -15 15c0 52.167 20.2549 101.461 57.0342 138.805c36.96 37.5283 85.958 58.1953 137.966 58.1953h60c52.0088 0 101.006 -20.667 137.966 -58.1953z
M61.6602 -34h388.68c-7.51465 85.0859 -78.3506 152 -164.34 152h-60c-85.9893 0 -156.825 -66.9141 -164.34 -152z" />
    <glyph glyph-name="018-null-1" unicode="&#xf111;" 
d="M437.016 373.016c99.9795 -99.9795 99.9795 -262.074 0 -362.03c-99.9785 -99.9805 -262.074 -99.9805 -362.028 -0.00195312c-99.9824 99.958 -99.9824 262.053 -0.00390625 362.03c99.958 99.9814 262.054 99.9814 362.032 0.00195312zM406.848 41.1562
c83.3145 83.2949 83.3145 218.372 -0.00195312 301.688c-83.3154 83.3174 -218.394 83.3174 -301.69 0c-83.3164 -83.3154 -83.3164 -218.394 0.00195312 -301.692c83.2949 -83.3145 218.373 -83.3145 301.69 0.00390625zM361.592 297.592
c8.33105 -8.33203 8.33105 -21.8389 0 -30.1699l-75.4248 -75.4248l75.4189 -75.4189c8.33105 -8.33105 8.33105 -21.8389 0 -30.1699s-21.8389 -8.33105 -30.1699 0l-75.4189 75.4189l-75.3975 -75.3975c-8.33105 -8.33105 -21.8389 -8.33105 -30.1699 0
s-8.33105 21.8389 0 30.1699l75.3975 75.3975l-75.4248 75.4248c-8.33105 8.33105 -8.33105 21.8389 0 30.1699s21.8389 8.33105 30.1699 0l75.4248 -75.4248l75.4248 75.4248c8.33105 8.33105 21.8389 8.33105 30.1699 0z" />
    <glyph glyph-name="053-play" unicode="&#xf134;" 
d="M473.343 214.322c8.03809 -4.55664 13.0557 -13.0557 13.0557 -22.3232c0 -9.2666 -5.01758 -17.7666 -13.0557 -22.3232l-409.599 -230.399c-3.8916 -2.20117 -8.24316 -3.27637 -12.5439 -3.27637c-4.45508 0 -8.90918 1.17773 -12.9023 3.48145
c-7.88477 4.6084 -12.6982 13.0049 -12.6982 22.1182v460.799c0 9.11328 4.81348 17.5107 12.6982 22.1182c7.83301 4.55664 17.5098 4.65918 25.4463 0.205078z" />
    <glyph glyph-name="045-book" unicode="&#xf12c;" 
d="M505.248 389.444c4.55664 -1.14258 7.75391 -5.24121 7.75391 -9.94141v-333.452c0 -12.8418 -13.1426 -9.85156 -20.7432 -7.1543c-93.7734 33.2676 -168.079 42.9277 -233.84 30.4111c-1.26855 -0.239258 -2.56738 -0.239258 -3.83594 0
c-65.7607 12.5205 -140.066 2.85645 -233.84 -30.4111c-7.60449 -2.69727 -20.7432 -5.63184 -20.7432 7.1543v25.5654c0 13.1826 20.501 13.1631 20.501 0v-11.0801c93.374 32.3447 168.587 41.6631 236 29.2686c67.4131 12.3945 142.626 3.07617 236 -29.2686v310.873
c-10.0781 2.27344 -20.3408 4.08594 -30.6611 5.43652v-270.263c0 -11.8633 -12.5635 -10.8691 -19.9023 -7.00586c-28.7285 12.3799 -59.0918 20.0781 -90.2471 22.8809c-31.1543 2.80664 -62.4023 0.657227 -92.8799 -6.3877
c-0.0078125 -0.00390625 -0.015625 -0.00390625 -0.0234375 -0.00390625c-0.270508 -0.0625 -0.544922 -0.101562 -0.814453 -0.140625c-0.105469 -0.015625 -0.214844 -0.0429688 -0.321289 -0.0546875c-0.277344 -0.03125 -0.555664 -0.0390625 -0.833008 -0.046875
c-0.106445 -0.00390625 -0.211914 -0.0195312 -0.313477 -0.0195312c-0.214844 0 -0.426758 0.0234375 -0.641602 0.0351562c-0.168945 0.0117188 -0.34082 0.0117188 -0.508789 0.0273438c-0.15332 0.0195312 -0.305664 0.0546875 -0.461914 0.078125
c-0.223633 0.0390625 -0.454102 0.0664062 -0.677734 0.117188c-0.0078125 0.00390625 -0.015625 0.00390625 -0.0234375 0.00390625c-30.4775 7.04492 -61.7256 9.19824 -92.8799 6.3916c-31.1553 -2.80664 -61.5186 -10.5049 -90.2471 -22.8809
c-7.33887 -3.82812 -19.9023 -4.83398 -19.9023 7.00195v270.267c-10.3203 -1.35059 -20.583 -3.16699 -30.6611 -5.43652v-217.554c0 -13.1826 -20.501 -13.1631 -20.501 0v225.647c0 4.7002 3.19727 8.79883 7.75391 9.94141
c14.1758 3.55762 28.7432 6.25781 43.4082 8.0625v29.8867c0 4.50879 2.94727 8.48926 7.26074 9.80371c66.8652 20.3721 138.337 9.83594 198.078 -25.585c59.71 35.4482 131.24 45.9531 198.078 25.585c4.31348 -1.31445 7.26074 -5.29492 7.26074 -9.80371v-29.8867
c14.665 -1.80469 29.2363 -4.50488 43.4082 -8.0625zM159.472 142.873c29.0566 2.61816 58.1875 1.20508 86.7793 -4.19629v255.183c-52.666 31.2598 -115.026 41.7451 -174.592 25.8076v-297.663c28.1299 11.1387 57.625 18.1523 87.8125 20.8691zM441.343 122.004v297.663
c-59.5615 15.9375 -121.934 5.45996 -174.591 -25.8076v-255.183c19.291 3.64453 38.8369 5.47168 58.4297 5.47168c39.6719 0 79.2764 -7.53809 116.161 -22.1445zM441.343 122.004zM295.805 344.039c40.9229 17.918 84.9668 19.3584 120.837 3.94922
c12.1055 -5.20117 4 -24.0273 -8.09375 -18.834c-43.5693 18.7168 -87.6084 3.51074 -104.521 -3.89355c-12.1719 -5.33105 -20.0977 13.5771 -8.22266 18.7783zM295.805 344.039zM416.638 284.814c12.1094 -5.20215 4.00391 -24.0312 -8.08984 -18.834
c-43.5693 18.7119 -87.6084 3.51074 -104.521 -3.89453c-12.1719 -5.33398 -20.1016 13.5771 -8.22266 18.7754c40.9229 17.918 84.9668 19.3574 120.833 3.95312zM416.638 284.814zM416.642 221.636c12.1055 -5.20117 4 -24.0273 -8.09375 -18.833
c-43.5693 18.7158 -87.6084 3.51074 -104.521 -3.89453c-12.1719 -5.33496 -20.0977 13.5771 -8.22266 18.7744c40.9229 17.9219 84.9668 19.3623 120.837 3.95312zM416.642 221.636zM217.777 344.039c12.0156 -5.26367 3.76074 -24.0273 -8.22363 -18.7783
c-16.9121 7.4043 -60.9512 22.6104 -104.521 3.89355c-12.1133 -5.20117 -20.1836 13.6406 -8.09375 18.834c35.8711 15.4092 79.9141 13.9688 120.838 -3.94922zM217.777 344.039zM217.777 280.861c12.0156 -5.26074 3.76074 -24.0234 -8.22363 -18.7793
c-16.9121 7.40527 -60.9512 22.6104 -104.521 3.89453c-12.1133 -5.19727 -20.1836 13.6396 -8.09375 18.834c35.8711 15.4082 79.9141 13.9688 120.838 -3.94922zM217.777 280.861zM217.777 217.683c12.0156 -5.25977 3.76074 -24.0234 -8.22363 -18.7744
c-16.9121 7.40527 -60.9512 22.6064 -104.521 3.89062c-12.1094 -5.19824 -20.1836 13.6396 -8.09375 18.8369c35.8711 15.4092 79.9141 13.9688 120.838 -3.95312zM217.777 217.683zM0.787109 108.219c-2.14941 5.15137 0.390625 11.2568 5.5459 13.3857
c5.1582 2.12891 11.2441 -0.387695 13.3848 -5.5459c2.1416 -5.1543 -0.390625 -11.252 -5.5459 -13.3857c-5.16992 -2.14062 -11.2324 0.387695 -13.3848 5.5459zM0.787109 108.219z" />
    <glyph glyph-name="005-food" unicode="&#xf104;" 
d="M465.512 237.793c0.0371094 -0.349609 0.0585938 -0.706055 0.0585938 -1.06641v-290.727c0 -5.52344 -4.47754 -10 -10 -10h-399.141c-5.52246 0 -10 4.47656 -10 10v290.727c0 2.22363 0.774414 4.4541 2.15234 6.19824l39.7158 50.2891v128.98
c0 14.2295 11.5762 25.8057 25.8057 25.8057h283.793c14.2295 0 25.8057 -11.5762 25.8057 -25.8057v-128.98l39.7158 -50.2891c1.15527 -1.46289 1.89648 -3.27734 2.09375 -5.13184zM108.298 422.194v-122.421h295.405v122.421
c0 3.20215 -2.60547 5.80566 -5.80566 5.80566h-283.794c-3.20117 0 -5.80566 -2.60547 -5.80566 -5.80566zM306.777 10.3604c14.7002 0 17.7861 12.1309 17.7871 22.3066c0 20.1123 -11.0977 39.0039 -17.7871 39.0039c-6.69043 0 -17.7861 -18.8906 -17.7861 -39.0039
c0 -10.1758 3.08594 -22.3066 17.7861 -22.3066zM316.777 -44h42.417c15.3389 21.5 23.4209 46.7676 23.4209 73.3857c0 69.8145 -56.7988 126.611 -126.612 126.611c-69.8125 0 -126.611 -56.7969 -126.611 -126.611c0 -26.6182 8.08105 -51.8857 23.4219 -73.3857h46.8281
v31.5918c-15.7734 3.74316 -30.709 16.9043 -30.709 45.0713v44.9434c0 5.52246 4.47754 10 10 10c5.52344 0 10 -4.47754 10 -10v-44.9434c0 -12.0469 3.74414 -20.2158 10.709 -23.9385v54.0361c0 5.52344 4.47754 10 10 10c5.52344 0 10 -4.47656 10 -10v-54.0361
c6.96484 3.72266 10.709 11.8916 10.709 23.9385v44.9434c0 5.52246 4.47754 10 10 10c5.52344 0 10 -4.47754 10 -10v-44.9434c0 -28.167 -14.9346 -41.3281 -30.709 -45.0713v-31.5918h77.1348v35.5166c-17.168 4.17676 -27.7861 19.4072 -27.7861 41.1504
c0 12.7939 3.39453 26.5068 9.31152 37.6221c7.3418 13.7881 17.4541 21.3818 28.4756 21.3818c11.0205 0 21.1338 -7.59277 28.4746 -21.3818c5.91797 -11.1152 9.3125 -24.8281 9.3125 -37.6221c0 -21.7432 -10.6182 -36.9736 -27.7871 -41.1504v-35.5166zM445.57 -44
v270.727h-146.227c-5.52246 0 -10 4.47754 -10 10c0 5.52344 4.47754 10 10 10h135.587l-26.0986 33.0469h-305.664l-26.0986 -33.0469h132.454c5.52246 0 10 -4.47656 10 -10c0 -5.52246 -4.47754 -10 -10 -10h-143.094v-270.727h62.6123
c-12.9014 22.1992 -19.6494 47.2285 -19.6494 73.3857c0 80.8408 65.7705 146.611 146.611 146.611s146.611 -65.7695 146.611 -146.611c0 -26.1572 -6.74902 -51.1875 -19.6494 -73.3857h62.6045zM324.554 401.24c20.4023 0 37 -16.5986 36.999 -37v-0.893555
c0 -20.4014 -16.5977 -37 -37 -37h-137.106c-20.4023 0 -37 16.5986 -37 37v0.893555c0 20.4014 16.5977 37 37 37h137.107zM341.554 363.347h-0.000976562v0.893555c0 9.37402 -7.62598 17 -17 17h-137.106c-9.37402 0 -17 -7.62598 -17 -17v-0.893555
c0 -9.37402 7.62598 -17 17 -17h137.107c9.37402 0 17 7.62598 17 17zM261.56 245.04c3.84668 -2.56543 5.42773 -7.60059 3.76855 -11.9092c-1.53418 -3.98242 -5.55273 -6.59277 -9.81641 -6.38867c-4.26855 0.204102 -7.99219 3.21777 -9.1377 7.32129
c-2.4502 8.76953 7.62402 15.9287 15.1855 10.9766z" />
    <glyph glyph-name="073-supermarket-gift" unicode="&#xf148;" 
d="M484.685 331.19c15.0625 0 27.3164 -12.2549 27.3154 -27.3154v-64.834c0 -15.0625 -12.2539 -27.3164 -27.3164 -27.3164h-12.5059v-245.753c0 -15.0615 -12.2539 -27.3154 -27.3154 -27.3154h-377.725c-15.0615 0 -27.3154 12.2539 -27.3154 27.3154v245.752h-12.5059
c-15.0625 0 -27.3164 12.2539 -27.3164 27.3164v64.834c0 15.0615 12.2539 27.3164 27.3164 27.3164h71.0225c-11.5947 12.5713 -18.6934 29.3496 -18.6934 47.7588c0 0 0.0136719 2.80957 0.0410156 3.61133c0.766602 22.7188 13.1553 42.9795 33.1387 54.2002
c20.3867 11.4463 44.6738 11.4424 64.9668 -0.0107422l32.3008 -18.2314c20.2275 -11.416 36.0586 -28.624 45.9082 -48.8574c9.84863 20.2334 25.6797 37.4414 45.9082 48.8584l32.3008 18.2295c20.293 11.4541 44.5801 11.457 64.9668 0.0107422
c19.9834 -11.2217 32.3721 -31.4814 33.1387 -54.2002c0.0273438 -0.801758 0.0410156 -3.61133 0.0410156 -3.61133c0 -18.4092 -7.09863 -35.1875 -18.6934 -47.7578h71.0215zM313.094 398.703c-25.0381 -14.1299 -41.6543 -39.3652 -45.0654 -67.5137h93.8135
c26.334 0 47.7578 21.4248 47.7578 47.7588c0 0 -0.00878906 2.29688 -0.0263672 2.84277c-0.496094 14.7031 -8.54785 27.834 -21.5371 35.127c-13.3926 7.51953 -29.333 7.52637 -42.6426 0.0136719zM102.427 381.792
c-0.0175781 -0.545898 -0.0263672 -2.84375 -0.0273438 -2.84277c0 -26.333 21.4238 -47.7578 47.7568 -47.7578h93.8135c-3.41016 28.1465 -20.0264 53.3818 -45.0645 67.5117l-32.2998 18.2285c-6.64941 3.75391 -13.958 5.62988 -21.2754 5.62988
c-7.32812 0 -14.6641 -1.87988 -21.3662 -5.64258c-12.9883 -7.29395 -21.04 -20.4248 -21.5371 -35.127zM204.802 177.111v34.6133h-142.224v-245.754c0 -2.51367 2.04492 -4.55859 4.55957 -4.55859h137.664v192.943h-46.8428
c-6.2832 0 -11.3779 5.09473 -11.3779 11.3779s5.09473 11.3779 11.3779 11.3779h46.8428zM204.802 234.479v73.9551h-177.485c-2.51465 0 -4.56055 -2.04492 -4.56055 -4.56055v-64.834c0 -2.51465 2.04492 -4.55957 4.56055 -4.56055h177.485zM284.442 -38.5869v347.022
h-56.8848v-347.022h56.8848zM449.423 -34.0283h0.000976562v245.753h-142.226v-34.6123h43.3555c6.28418 0 11.3779 -5.09473 11.3779 -11.3779s-5.09375 -11.3779 -11.3779 -11.3779h-43.3555v-192.944h137.665c2.51367 0 4.55957 2.04492 4.55957 4.55957z
M489.245 239.039h0.000976562v64.835c0 2.51465 -2.0459 4.56055 -4.56055 4.56055h-177.487v-73.9561h177.486c2.51465 0 4.56055 2.0459 4.56055 4.56055zM404.599 154.356c-6.28418 0 -11.377 5.09473 -11.3779 11.3779c0 6.2832 5.09375 11.3779 11.3779 11.3779h1.1377
c6.28418 0 11.3789 -5.09473 11.3789 -11.3779s-5.09473 -11.3779 -11.3789 -11.3779h-1.1377zM102.778 154.356c-6.28418 0 -11.3779 5.09473 -11.3779 11.3779s5.09375 11.3779 11.3779 11.3779h1.1377c6.2832 0 11.3779 -5.09473 11.3779 -11.3779
s-5.09375 -11.3779 -11.3779 -11.3779h-1.1377z" />
    <glyph glyph-name="085-document" unicode="&#xf154;" 
d="M285 -44c0 -11.0469 -8.95312 -20 -20 -20h-185c-44.1133 0 -80 35.8867 -80 80v287.145c0 20.7656 8.05078 40.3242 22.668 55.0703l66.043 66.6289c14.5859 14.7148 34.8359 23.1562 55.5586 23.1562h181.621c44.1094 0 80 -35.8867 80 -80v-187
c0 -11.0469 -8.95703 -20 -20 -20c-11.0469 0 -20 8.95312 -20 20v187c0 22.0547 -17.9453 40 -40 40h-181.621c-10.125 0 -20.0234 -4.125 -27.1484 -11.3164l-66.043 -66.6289c-3.23047 -3.25781 -5.79688 -7 -7.64844 -11.0547h55.5703c16.5391 0 30 13.457 30 30
c0 11.0469 8.95312 20 20 20s20 -8.95312 20 -20c0 -38.5977 -31.4023 -70 -70 -70h-59v-263c0 -22.0547 17.9414 -40 40 -40h185c11.0469 0 20 -8.95312 20 -20zM440.426 -46.4258c-11.6953 -11.6953 -27.0625 -17.5469 -42.4258 -17.5469
s-30.7305 5.85156 -42.4258 17.5469l-109.367 109.57c-2.4375 2.44141 -4.19922 5.46875 -5.11719 8.79297l-22.3633 80.7227c-1.94922 7.03125 0.0859375 14.5625 5.30859 19.6562c5.21875 5.09375 12.8008 6.94141 19.7773 4.82031l78.7266 -23.9141
c3.15234 -0.957031 6.01953 -2.67578 8.34375 -5.00781l109.562 -109.805c23.375 -23.3789 23.375 -61.4414 -0.0195312 -84.8359zM278.23 87.6836l73.5156 -73.6523l28.2891 28.2891l-73.9258 74.0898l-39.1289 11.8828zM412.141 10.1406l-3.85156 3.86328
l-28.2852 -28.2852l3.86719 -3.875c7.78516 -7.78516 20.4727 -7.78516 28.2695 0.0117188c7.80078 7.80078 7.80078 20.4883 0 28.2852zM412.141 10.1406z" />
    <glyph glyph-name="030-paper-plane" unicode="&#xf11d;" 
d="M186.667 72.2773l86.7627 -29.6533l-57.8779 -78.7627c-3.07129 -4.18164 -7.89355 -6.52832 -12.8848 -6.52832c-1.66406 0 -3.34961 0.255859 -4.99219 0.790039c-6.57129 2.17578 -11.0078 8.29785 -11.0078 15.21v98.9443zM505.28 445.034
c4.90625 -3.49805 7.42383 -9.42871 6.54883 -15.4023l-58.666 -394.666c-0.704102 -4.67285 -3.45605 -8.83203 -7.50977 -11.3076c-2.53906 -1.53516 -5.41895 -2.3252 -8.32031 -2.3252c-1.74902 0 -3.49805 0.298828 -5.16211 0.853516l-223.638 76.4375
l219.904 264.938l-284.182 -242.986l-133.439 45.6104c-6.03809 2.06934 -10.2832 7.53125 -10.7734 13.9307c-0.469727 6.37891 2.87988 12.4375 8.55469 15.4023l480 250.667c5.33301 2.79492 11.7754 2.3252 16.6826 -1.15234z" />
    <glyph glyph-name="033-check" unicode="&#xf120;" 
d="M196.437 56.8389c-4.89648 -4.9248 -11.5781 -7.67383 -18.5176 -7.67383c-6.94043 0 -13.6221 2.74902 -18.5186 7.67383l-147.89 147.914c-15.3477 15.3477 -15.3477 40.2354 0 55.5537l18.5176 18.5234c15.3525 15.3477 40.2119 15.3477 55.5596 0l92.3311 -92.3359
l249.491 249.496c15.3525 15.3477 40.2354 15.3477 55.5586 0l18.5176 -18.5225c15.3486 -15.3477 15.3486 -40.2305 0 -55.5537zM196.437 56.8389z" />
    <glyph glyph-name="057-right-quote-1" unicode="&#xf138;" 
d="M120 371c66.168 0 120 -53.832 120 -120c0 -135.148 -54.6797 -224.797 -57.0068 -228.547l-5.86719 -9.45312h-87.584l7.2168 25.4561c7.05273 24.8789 18.2412 69.832 18.2412 84.5439c0 3.59082 -0.107422 6.21484 -0.250977 8.11914
c-30.4707 1.31055 -58.917 13.9609 -80.375 35.8115c-22.166 22.5723 -34.374 52.4287 -34.374 84.0693c0 66.168 53.832 120 120 120zM154.189 53c12.9746 25.166 45.8105 98.6797 45.8105 198c0 44.1123 -35.8877 80 -80 80s-80 -35.8877 -80 -80
c0 -43.2627 35.1758 -79.1406 78.4131 -79.9785l0.873047 -0.0224609c17.542 -0.0957031 26.0938 -9.10547 30.1826 -16.6689c4.59082 -8.49219 5.53125 -18.666 5.53125 -31.3301c0 -15.959 -7.19434 -47.416 -12.9414 -70h12.1309zM392 371c66.168 0 120 -53.832 120 -120
c0 -135.148 -54.6797 -224.797 -57.0068 -228.547l-5.86719 -9.45312h-87.584l7.2168 25.4561c7.05273 24.8789 18.2412 69.832 18.2412 84.5439c0 3.59082 -0.107422 6.21484 -0.250977 8.11914c-30.4707 1.31055 -58.917 13.9609 -80.375 35.8115
c-22.166 22.5723 -34.374 52.4287 -34.374 84.0693c0 66.168 53.832 120 120 120zM426.189 53c12.9746 25.166 45.8105 98.6797 45.8105 198c0 44.1123 -35.8877 80 -80 80s-80 -35.8877 -80 -80c0 -43.2627 35.1758 -79.1406 78.4131 -79.9785l0.873047 -0.0224609
c17.542 -0.0957031 26.0938 -9.10547 30.1826 -16.6689c4.59082 -8.49219 5.53125 -18.666 5.53125 -31.3301c0 -15.959 -7.19434 -47.416 -12.9414 -70h12.1309z" />
    <glyph glyph-name="017-multimedia" unicode="&#xf110;" 
d="M256 -32h-240c-6.20312 0 -11.8584 3.59375 -14.4834 9.21875c-2.64062 5.60938 -1.78125 12.25 2.1875 17.0312l50.3125 60.374c-34.9385 39.2666 -54.0166 87.5322 -54.0166 137.376c0 123.516 114.844 224 256 224s256 -100.484 256 -224s-114.844 -224 -256 -224z
M50.1562 -0h205.844c123.515 0 224 86.125 224 192s-100.485 192 -224 192s-224 -86.125 -224 -192c0 -45.875 19.4219 -90.3906 54.6719 -125.344c5.89062 -5.84375 6.34375 -15.2188 1.03125 -21.5928z" />
    <glyph glyph-name="088-trash" unicode="&#xf157;" 
d="M396.98 288.707c3.78125 -4.01953 5.73438 -9.41797 5.39844 -14.9219l-10.1055 -166c-0.667969 -11.0273 -10.1523 -19.418 -21.1758 -18.75c-11.0273 0.671875 -19.418 10.1523 -18.75 21.1797l8.8125 144.785h-290.32l14.6953 -241.43
c1.28125 -21.0664 18.8203 -37.5703 39.9258 -37.5703h181.078c21.1094 0 38.6445 16.5039 39.9297 37.5703c0.667969 11.0234 10.1523 19.4141 21.1758 18.7461c11.0273 -0.667969 19.418 -10.1523 18.75 -21.1758c-2.56641 -42.1367 -37.6406 -75.1406 -79.8555 -75.1406
h-181.078c-42.2148 0 -77.2891 33.0039 -79.8555 75.1406l-15.9844 262.645c-0.335938 5.50391 1.61719 10.9023 5.39844 14.9219c3.78125 4.01562 9.05078 6.29297 14.5664 6.29297h332.828c5.51562 0 10.7852 -2.27734 14.5664 -6.29297zM432 355.066
c0 -11.0469 -8.95312 -20 -20 -20h-392c-11.0469 0 -20 8.95312 -20 20s8.95312 20 20 20h106.328c3.59375 40.8125 37.9414 72.9336 79.6719 72.9336h20c41.7305 0 76.0781 -32.1211 79.6719 -72.9336h106.328c11.0469 0 20 -8.95312 20 -20zM166.637 375.066h98.7266
c-3.34766 18.6953 -19.7188 32.9336 -39.3633 32.9336h-20c-19.6445 0 -36.0156 -14.2383 -39.3633 -32.9336zM196 195c0 11.0469 8.95312 20 20 20s20 -8.95312 20 -20v-160c0 -11.0469 -8.95312 -20 -20 -20s-20 8.95312 -20 20v160zM135.199 184.984
c11.0273 0.46875 20.3438 -8.14844 20.7852 -19.1836l4 -100c0.441406 -11.0352 -8.14844 -20.3438 -19.1836 -20.7852c-0.273438 -0.0117188 -0.542969 -0.015625 -0.816406 -0.015625c-10.6758 0 -19.5391 8.4375 -19.9688 19.1992l-4 100
c-0.441406 11.0391 8.14844 20.3438 19.1836 20.7852zM276.016 165.801c0.441406 11.0352 9.75 19.6523 20.7852 19.1836c11.0352 -0.441406 19.625 -9.74609 19.1836 -20.7852l-4 -100c-0.429688 -10.7617 -9.29297 -19.1992 -19.9688 -19.1992
c-0.273438 0 -0.542969 0.00390625 -0.816406 0.015625c-11.0352 0.441406 -19.625 9.74609 -19.1836 20.7852zM276.016 165.801z" />
    <glyph glyph-name="095-target-1" unicode="&#xf15e;" 
d="M196 191.996c0 -33.082 26.9141 -60 59.9961 -60c24.5898 0 46.3203 15.0156 55.3633 38.2539c4.00391 10.293 15.5977 15.3906 25.8906 11.3867c10.293 -4.00781 15.3906 -15.5977 11.3867 -25.8906c-15.0703 -38.7266 -51.4336 -63.7461 -92.6406 -63.7461
c-55.1406 0 -99.9961 44.8594 -99.9961 100c0 42.9023 27.125 81.043 67.5 94.9141c10.4492 3.58594 21.8242 -1.97266 25.4141 -12.4219c3.58594 -10.4453 -1.97266 -21.8242 -12.418 -25.4102c-24.2227 -8.32031 -40.4961 -31.2617 -40.4961 -57.0859zM288.238 323.57
c-9.41016 2.30469 -19.957 3.42578 -32.2422 3.42578c-74.4375 0 -134.996 -60.5625 -134.996 -135s60.5586 -134.996 134.996 -134.996c74.4414 0 135 60.5586 135 134.996c0 11.1758 -1.16406 21.7305 -3.45703 31.3711c-2.55859 10.7461 4.08203 21.5312 14.8281 24.0859
s21.5312 -4.08203 24.0859 -14.8281c3.01562 -12.6719 4.54297 -26.3438 4.54297 -40.6289c0 -96.4922 -78.5039 -174.996 -175 -174.996c-96.4922 0 -174.996 78.5039 -174.996 174.996c0 96.4961 78.5039 175 174.996 175c15.5312 0 29.1914 -1.49609 41.7578 -4.57422
c10.7305 -2.62891 17.2969 -13.457 14.668 -24.1836c-2.625 -10.7266 -13.4531 -17.2969 -24.1836 -14.668zM470.34 294.727c10.3438 3.87109 21.8711 -1.37109 25.7461 -11.7148c10.5547 -28.1836 15.9102 -58.8047 15.9102 -91.0156
c0 -68.3789 -26.6289 -132.664 -74.9805 -181.016s-112.637 -74.9805 -181.02 -74.9805c-68.3789 0 -132.664 26.6289 -181.016 74.9805s-74.9805 112.637 -74.9805 181.016s26.6289 132.668 74.9805 181.02s112.637 74.9805 181.016 74.9805
c31.4609 0 62.5 -5.875 92.2578 -17.4648c10.293 -4.00781 15.3867 -15.6016 11.3789 -25.8945s-15.6016 -15.3867 -25.8945 -11.3789c-25.1094 9.77734 -51.2656 14.7383 -77.7422 14.7383c-119.102 0 -215.996 -96.8984 -215.996 -216s96.8945 -215.996 215.996 -215.996
s216 96.8945 216 215.996c0 27.4023 -4.5 53.3047 -13.3711 76.9844c-3.87109 10.3438 1.37109 21.8711 11.7148 25.7461zM241.855 206.141l125.016 125.012l30.9766 102.621c3.19531 10.5781 14.3555 16.5586 24.9297 13.3672s16.5547 -14.3516 13.3633 -24.9258
l-9.42188 -31.2109l31.1328 31.1328c7.8125 7.80859 20.4766 7.80859 28.2852 0c7.8125 -7.80859 7.8125 -20.4727 0 -28.2852l-29.5781 -29.5781l29.707 8.88281c10.582 3.16797 21.7266 -2.84766 24.8906 -13.4297s-2.84766 -21.7266 -13.4297 -24.8906l-100.73 -30.125
l-126.855 -126.855c-3.90625 -3.90625 -9.02344 -5.85938 -14.1445 -5.85938c-5.11719 0 -10.2344 1.95312 -14.1406 5.85938c-7.8125 7.80859 -7.8125 20.4727 0 28.2852zM241.855 206.141z" />
    <glyph glyph-name="027-youtube" unicode="&#xf11a;" 
d="M500.672 321.515c7.44531 -40.4268 11.3281 -82.1123 11.3281 -124.715c0 -1.72754 0 -3.45605 -0.0214844 -4.90625c0.0214844 -1.5791 0.0214844 -3.15723 0.0214844 -4.71484c0 -42.5811 -3.88281 -84.2666 -10.667 -120.49l-0.106445 -0.448242
c-6.08008 -21.5039 -22.8057 -38.4434 -44.459 -44.7148c-40.3408 -10.8584 -200.533 -10.8584 -200.533 -10.8584s-160.661 0 -200.533 10.8584l-0.448242 0.106445c-21.2266 6.16504 -37.9307 23.1045 -44.1172 45.0566l0.661133 -4.22461
c-15.6797 83.3926 -15.5732 176.981 -0.661133 254.869l0.106445 0.448242c6.08008 21.5039 22.8057 38.4424 44.4375 44.7148c40.3203 11.0508 200.533 10.8369 200.533 10.8369s160.619 0 200.534 -10.8369l0.447266 -0.106445
c21.2266 -6.16602 37.9307 -23.1045 44.1172 -45.0566zM204.971 114.112l133.675 77.6748l-133.675 77.9092v-155.584z" />
    <glyph glyph-name="036-dumbbell" unicode="&#xf123;" 
d="M442.133 245.729c39.0762 0 70.8691 -31.7881 70.8691 -70.8643s-31.793 -70.8691 -70.8691 -70.8691c-24.5635 0 -47.1699 12.6729 -60.4697 33.9023c-0.825195 1.31836 -1.33008 1.7998 -1.49121 1.92969c-0.285156 0.046875 -1.49512 0.140625 -4.62988 -0.693359
c-5.66309 -1.50293 -11.7334 -2.80566 -18.043 -3.86621c-5.45996 -0.919922 -10.626 2.75879 -11.5459 8.21875c-0.916016 5.45605 2.7627 10.6221 8.21875 11.542c5.69922 0.958984 11.1592 2.12891 16.2236 3.47559c8.78223 2.33301 19.9297 3.30762 28.25 -9.96875
c9.61328 -15.3428 25.8672 -24.501 43.4834 -24.501c28.0273 0 50.8301 22.8027 50.8301 50.8301s-22.8027 50.8252 -50.8301 50.8252c-17.6162 0 -33.8701 -9.1582 -43.4834 -24.501c-8.31641 -13.2754 -19.4678 -12.2969 -28.25 -9.96484
c-11.2764 2.99414 -29.8906 6.56836 -54.5088 6.56836c-24.6221 0 -43.2334 -3.57422 -54.5127 -6.56836c-8.7832 -2.33203 -19.9297 -3.31055 -28.2471 9.96484c-9.6123 15.3428 -25.8701 24.501 -43.4873 24.501c-28.0273 0 -50.8291 -22.8018 -50.8291 -50.8252
c0 -28.0273 22.8018 -50.8301 50.8291 -50.8301c17.6172 0 33.875 9.16211 43.4873 24.501c8.31738 13.2764 19.4639 12.3018 28.251 9.96875c5.06055 -1.34668 10.5205 -2.5166 16.2227 -3.47559c5.45605 -0.919922 9.13477 -6.08594 8.21973 -11.542
c-0.919922 -5.45605 -6.09082 -9.13867 -11.5459 -8.21875c-6.31348 1.06445 -12.3838 2.36328 -18.0439 3.86621c-3.13086 0.833984 -4.33984 0.740234 -4.62988 0.693359c-0.15625 -0.129883 -0.665039 -0.611328 -1.49121 -1.92969
c-13.3027 -21.2295 -35.9062 -33.9023 -60.4697 -33.9023c-39.0762 0 -70.8682 31.793 -70.8682 70.8691s31.792 70.8643 70.8682 70.8643c24.5635 0 47.167 -12.6729 60.4697 -33.8975c0.826172 -1.32324 1.33105 -1.80078 1.49121 -1.93359
c0.290039 -0.0429688 1.49902 -0.136719 4.62988 0.692383c17.8281 4.73633 38.4541 7.24121 59.6562 7.24121c21.2012 0 41.8271 -2.50488 59.6553 -7.24121c3.13477 -0.833008 4.34473 -0.735352 4.62988 -0.692383c0.161133 0.132812 0.666016 0.610352 1.49512 1.93359
c13.2998 21.2246 35.9023 33.8975 60.4658 33.8975zM442.133 245.729zM140.677 271.898c-4.60254 -24.6221 -20.9941 -44.6973 -43.8506 -53.6914c-8.49316 -3.3418 -17.2529 -4.92676 -25.8711 -4.92676c-28.2822 0 -55.0566 17.0449 -66.0273 44.9111
c-14.3135 36.3604 3.62402 77.5898 39.9883 91.9023c22.8535 8.99414 48.5283 5.4834 68.6807 -9.39746c1.25293 -0.926758 1.89844 -1.18945 2.09375 -1.25195c0.286133 0.0625 1.44824 0.418945 4.05469 2.34082c14.8535 10.9346 33.1318 20.8174 52.8613 28.583
c19.7305 7.76855 39.8398 12.9941 58.1611 15.1152c3.2207 0.375977 4.3125 0.904297 4.56348 1.05273c0.0976562 0.179688 0.390625 0.810547 0.680664 2.34473c4.59863 24.6221 20.9941 44.6963 43.8477 53.6904c36.3594 14.3135 77.5889 -3.62402 91.8984 -39.9844
c6.93457 -17.6123 6.59473 -36.873 -0.958984 -54.2305c-7.55469 -17.3584 -21.4131 -30.7363 -39.0254 -37.6719c-22.8574 -8.99414 -48.5293 -5.4834 -68.6816 9.39746c-1.25586 0.927734 -1.90234 1.19043 -2.09766 1.25293
c-0.286133 -0.0625 -1.44434 -0.418945 -4.05469 -2.34082c-4.7207 -3.47559 -9.89453 -6.9082 -15.3701 -10.2031c-4.73926 -2.85352 -10.8965 -1.32324 -13.749 3.41992c-2.85352 4.74023 -1.32324 10.8965 3.41992 13.75c4.94336 2.97852 9.59375 6.0625 13.8164 9.16992
c7.31934 5.38965 17.3311 10.3838 29.9375 1.07227c14.5635 -10.751 33.0449 -13.3184 49.4365 -6.86816c12.6338 4.97461 22.5752 14.5674 27.9922 27.0176s5.66309 26.2617 0.688477 38.8955c-10.2656 26.0791 -39.8311 38.9473 -65.9102 28.6777
c-16.3945 -6.4502 -28.1641 -20.9277 -31.4912 -38.7246c-2.87988 -15.4004 -13.6084 -18.5791 -22.6377 -19.624c-11.585 -1.34277 -30.2109 -4.83398 -53.127 -13.8555c-22.9121 -9.01758 -38.9199 -19.1582 -48.3174 -26.0742
c-7.31836 -5.38867 -17.334 -10.3789 -29.9375 -1.07227c-14.5635 10.7559 -33.0449 13.3232 -49.4355 6.86914c-26.0791 -10.2627 -38.9434 -39.832 -28.6816 -65.9102c10.2666 -26.082 39.8359 -38.9473 65.9141 -28.6807c16.3955 6.4541 28.1641 20.9316 31.4912 38.7275
c2.87695 15.4014 13.6084 18.5752 22.6338 19.6201c5.21777 0.603516 10.7246 1.51465 16.3604 2.70898c5.41699 1.15039 10.7314 -2.31738 11.8789 -7.73047c1.14258 -5.41211 -2.31738 -10.7314 -7.73047 -11.874c-6.24609 -1.32324 -12.3672 -2.33691 -18.2031 -3.00977
c-3.21777 -0.375977 -4.30957 -0.904297 -4.55957 -1.05371c-0.101562 -0.179688 -0.395508 -0.80957 -0.681641 -2.34375zM140.677 271.898zM315.887 151.938c5.51855 0 10.0195 -4.50098 10.0195 -10.0195s-4.50098 -10.0195 -10.0195 -10.0195
s-10.0195 4.50098 -10.0195 10.0195s4.50098 10.0195 10.0195 10.0195zM315.887 151.938zM190.392 299.733c0 5.51953 4.50098 10.0205 10.0195 10.0205s10.0195 -4.50098 10.0195 -10.0205c0 -5.51855 -4.50098 -10.0195 -10.0195 -10.0195
s-10.0195 4.50098 -10.0195 10.0195zM190.392 299.733z" />
    <glyph glyph-name="074-right-arrow-1" unicode="&#xf149;" 
d="M398.23 211.979c5.28223 -5.28711 8.18359 -12.3467 8.16699 -19.8848c0.0166016 -7.50977 -2.88477 -14.5732 -8.16699 -19.8643l-228.059 -228.05c-5.26953 -5.27441 -12.3047 -8.17969 -19.8057 -8.17969s-14.5312 2.90527 -19.8057 8.17969l-16.7793 16.7705
c-5.26953 5.27832 -8.17871 12.3086 -8.17871 19.8145c0 7.49609 2.90918 14.5273 8.17871 19.8008l191.541 191.541l-191.328 191.328c-10.9189 10.9141 -10.9189 28.6797 0 39.6104l16.7793 16.7754c5.26953 5.27441 12.3047 8.17969 19.8057 8.17969
s14.5352 -2.90527 19.8057 -8.17969z" />
    <glyph glyph-name="080-copy" unicode="&#xf14f;" 
d="M271 -64h-191c-44.1133 0 -80 35.8867 -80 80v271c0 44.1133 35.8867 80 80 80h191c44.1133 0 80 -35.8867 80 -80v-271c0 -44.1133 -35.8867 -80 -80 -80zM80 327c-22.0547 0 -40 -17.9453 -40 -40v-271c0 -22.0547 17.9453 -40 40 -40h191c22.0547 0 40 17.9453 40 40
v271c0 22.0547 -17.9453 40 -40 40h-191zM431 66c0 -11.0469 -8.95312 -20 -20 -20s-20 8.95312 -20 20v302c0 22.0547 -17.9453 40 -40 40h-222c-11.0469 0 -20 8.95312 -20 20s8.95312 20 20 20h222c44.1133 0 80 -35.8867 80 -80v-302zM431 66z" />
    <glyph glyph-name="066-like" unicode="&#xf141;" 
d="M376 418c77.5322 0 136 -63.417 136 -147.514c0 -90.8545 -72.9434 -153.016 -183.357 -247.108c-18.7627 -15.9902 -40.0166 -34.1025 -62.1104 -53.4248c-2.91211 -2.54883 -6.65234 -3.95312 -10.5322 -3.95312s-7.62012 1.4043 -10.5322 3.9541
c-22.0918 19.3193 -43.3467 37.4326 -62.0986 53.4141c-110.426 94.1025 -183.369 156.264 -183.369 247.118c0 84.0967 58.4678 147.514 136 147.514c27.7832 0 53.2549 -8.80371 75.707 -26.168c21.5254 -16.6475 35.8564 -37.8486 44.293 -53.2676
c8.43652 15.418 22.7676 36.6201 44.293 53.2676c22.4521 17.3643 47.9238 26.168 75.707 26.168z" />
    <glyph glyph-name="075-left-arrow-1" unicode="&#xf14a;" 
d="M206.682 191.892l191.325 -191.325c10.9189 -10.915 10.9189 -28.6885 0 -39.6074l-16.7793 -16.7754c-5.27344 -5.27832 -12.3047 -8.18359 -19.8057 -8.18359c-7.50488 0 -14.5352 2.90527 -19.8057 8.18359l-227.844 227.832
c-5.29492 5.29004 -8.18848 12.3457 -8.16699 19.8887c-0.0214844 7.50977 2.87598 14.5732 8.16699 19.8594l228.057 228.053c5.26953 5.27832 12.2998 8.18359 19.8008 8.18359s14.54 -2.90527 19.8057 -8.18359l16.7842 -16.7754
c5.27344 -5.26953 8.1748 -12.3008 8.1748 -19.8057c0 -7.50098 -2.90137 -14.5361 -8.1748 -19.7969z" />
    <glyph glyph-name="011-light" unicode="&#xf10a;" 
d="M413.066 186.35c-4.94336 -34.0391 -20.4463 -64.9219 -44.835 -89.3096c-10.3369 -10.3359 -21.8477 -19.0703 -34.2324 -26.0791v-80.9609c0 -2.65234 -1.05371 -5.19629 -2.92871 -7.07129l-44 -44c-1.875 -1.875 -4.41895 -2.92871 -7.07129 -2.92871h-48
c-2.65234 0 -5.19629 1.05371 -7.07129 2.92871l-44 44c-1.875 1.875 -2.92871 4.41895 -2.92871 7.07129v80.9609c-12.3838 7.00879 -23.8965 15.7432 -34.2324 26.0791c-61.8848 61.8848 -61.8848 162.58 0 224.465c24.3896 24.3877 55.2715 39.8916 89.3115 44.833
c32.8994 4.77637 67.1592 -1.03711 96.4707 -16.3701c4.89453 -2.55957 6.78613 -8.60156 4.22656 -13.4961c-2.56055 -4.89355 -8.60352 -6.78613 -13.4961 -4.22559c-53.9922 28.2422 -119.243 18.2441 -162.369 -24.8838c-54.0869 -54.0869 -54.0869 -142.094 0 -196.181
c18.3809 -18.3809 41.0146 -30.959 65.6797 -36.835v103.069h-14.4473c-18.9932 0 -34.4463 15.4531 -34.4463 34.4473s15.4531 34.4463 34.4463 34.4463c18.9941 0 34.4473 -15.4521 34.4473 -34.4463v-14.4473h24.8203v14.4473c0 18.9941 15.4531 34.4463 34.4473 34.4463
c18.9932 0 34.4463 -15.4521 34.4463 -34.4463s-15.4531 -34.4473 -34.4463 -34.4473h-14.4473v-103.069c24.665 5.87598 47.2988 18.4541 65.6797 36.835c43.126 43.127 53.127 108.378 24.8848 162.368c-2.55957 4.89453 -0.667969 10.9365 4.22656 13.4961
c4.89355 2.55957 10.9355 0.667969 13.4961 -4.22559c15.332 -29.3115 21.1455 -63.5723 16.3691 -96.4707zM288.41 211.863v-14.4473h14.4473c7.96582 0 14.4463 6.48145 14.4463 14.4473s-6.48047 14.4463 -14.4463 14.4463
c-7.9668 0 -14.4473 -6.48047 -14.4473 -14.4463zM194.696 211.863c0 -7.96582 6.48047 -14.4473 14.4463 -14.4473h14.4473v14.4473c0 7.96582 -6.48047 14.4463 -14.4473 14.4463c-7.96582 0 -14.4463 -6.48047 -14.4463 -14.4463zM243.59 177.416v-106.31
c4.10352 -0.361328 8.24219 -0.554688 12.4102 -0.554688s8.30664 0.193359 12.4102 0.554688v106.31h-24.8203zM275.858 -44l38 38h-115.717l38 -38h39.7168zM314 14v47.4463c-18.2334 -7.14844 -37.8271 -10.8936 -58 -10.8936s-39.7666 3.74512 -58 10.8936v-47.4463h116
zM256 393c-5.52344 0 -10 4.47656 -10 10v35c0 5.52344 4.47656 10 10 10s10 -4.47656 10 -10v-35c0 -5.52344 -4.47656 -10 -10 -10zM48.543 225.235c5.52344 0 10 -4.47754 10 -10c0 -5.52344 -4.47656 -10 -10 -10h-38.543c-5.52344 0 -10 4.47656 -10 10
c0 5.52246 4.47656 10 10 10h38.543zM502 225.235c5.52344 0 10 -4.47754 10 -10c0 -5.52344 -4.47656 -10 -10 -10h-38.543c-5.52344 0 -10 4.47656 -10 10c0 5.52246 4.47656 10 10 10h38.543zM395.882 345.118c-2.55859 0 -5.11816 0.975586 -7.07129 2.92871
c-3.9043 3.90527 -3.9043 10.2373 0 14.1426l49.9355 49.9346c3.90527 3.90527 10.2373 3.90527 14.1416 0c3.90527 -3.90527 3.90527 -10.2373 0 -14.1416l-49.9346 -49.9355c-1.95215 -1.95215 -4.51172 -2.92871 -7.07129 -2.92871zM109.046 348.047l-49.9336 49.9355
c-3.90625 3.9043 -3.90527 10.2363 0 14.1416c3.9043 3.90527 10.2363 3.90527 14.1416 0l49.9346 -49.9346c3.90527 -3.90527 3.9043 -10.2373 0 -14.1426c-1.95215 -1.95215 -4.5127 -2.92871 -7.07129 -2.92871c-2.55957 0 -5.11816 0.975586 -7.07129 2.92871z
M114.129 75.582c3.90625 3.90527 10.2373 3.90527 14.1426 0c3.9043 -3.90527 3.9043 -10.2373 0 -14.1416l-55.0186 -55.0186c-1.95215 -1.95215 -4.51172 -2.92871 -7.07129 -2.92871c-2.55859 0 -5.11719 0.975586 -7.07031 2.92871
c-3.90527 3.90527 -3.90527 10.2373 0 14.1426zM397.871 75.582l55.0176 -55.0176c3.90625 -3.90527 3.90527 -10.2373 0 -14.1426c-1.95215 -1.95215 -4.51172 -2.92871 -7.07031 -2.92871c-2.55957 0 -5.11816 0.975586 -7.07129 2.92871l-55.0186 55.0186
c-3.90527 3.9043 -3.9043 10.2363 0 14.1416c3.90527 3.90527 10.2373 3.90527 14.1426 0zM361.16 304.43c-2.62988 0 -5.20996 1.07031 -7.07031 2.93066c-1.85938 1.85938 -2.92969 4.43945 -2.92969 7.06934c0 2.64062 1.07031 5.20996 2.92969 7.07031
c1.86035 1.87012 4.44043 2.92969 7.07031 2.92969s5.20996 -1.05957 7.07031 -2.92969c1.85938 -1.86035 2.92969 -4.42969 2.92969 -7.07031c0 -2.62988 -1.07031 -5.19922 -2.92969 -7.06934c-1.86035 -1.86035 -4.44043 -2.93066 -7.07031 -2.93066z" />
    <glyph glyph-name="060-management" unicode="&#xf13b;" 
d="M437.433 184.604c5.12891 -9.36719 4.92871 -20.4385 -0.539062 -29.6143c-5.44043 -9.13574 -15.0195 -14.5762 -25.6426 -14.5762h-0.142578l-4.74023 0.0214844v-34.583c0 -34.876 -28.374 -63.25 -63.251 -63.25h-30.0215
c-2.5957 0 -4.70801 -2.11133 -4.70801 -4.70801v-91.8936c0 -3.39258 -1.71973 -6.55371 -4.56738 -8.39648c-1.64355 -1.0625 -3.53223 -1.60352 -5.43262 -1.60352c-1.39258 0 -2.78906 0.291016 -4.09863 0.878906l-150.041 67.4385
c-5.03711 2.26367 -7.28516 8.18262 -5.02148 13.2207c2.26465 5.03809 8.18262 7.28613 13.2217 5.02051l135.94 -61.1006v76.4346c0 13.624 11.084 24.708 24.708 24.708h30.0215c23.8486 0 43.251 19.4023 43.251 43.25v44.6299
c0 2.65918 1.05957 5.20996 2.94531 7.08691c1.87402 1.86523 4.41016 2.91309 7.05469 2.91309h0.0458984l14.7861 -0.0683594h0.0517578c5.04688 0 7.59668 3.3623 8.45996 4.81055c0.866211 1.45508 2.61816 5.31836 0.177734 9.77637l-32.293 58.9902
c-0.805664 1.47168 -1.22852 3.12402 -1.22852 4.80176v41.4551c0 81.4717 -66.2822 147.754 -147.754 147.754c-81.4736 0 -147.755 -66.2822 -147.755 -147.754v-28.8066c0 -32.6357 10.1084 -63.8057 29.2344 -90.1416c1.24023 -1.70801 1.9082 -3.76465 1.9082 -5.87598
v-85.7715c0 -5.52344 -4.47754 -10 -10 -10c-5.52148 0 -10 4.47656 -10 10v82.5752c-20.3857 29.1992 -31.1436 63.4297 -31.1436 99.2139v28.8066c0.000976562 92.5 75.2549 167.754 167.755 167.754s167.755 -75.2539 167.755 -167.754v-38.8965zM336.354 314.757
c12.6201 -1.49316 22.1387 -11.2939 22.1377 -22.7988v-24.7871c0 -11.5039 -9.51758 -21.3057 -22.1357 -22.7988l-6.71289 -0.793945c-0.429688 -1.08984 -0.87793 -2.17285 -1.3457 -3.24707l4.18652 -5.30762c7.86719 -9.97949 7.66699 -23.6406 -0.46875 -31.7754
l-17.5254 -17.5264c-8.1377 -8.13477 -21.7959 -8.33594 -31.7734 -0.46875l-5.30859 4.18555c-1.0752 -0.46875 -2.15918 -0.916992 -3.25098 -1.34863l-0.793945 -6.71094c-1.49316 -12.6211 -11.2949 -22.1367 -22.8008 -22.1367h-24.7852
c-11.5039 0 -21.3066 9.5166 -22.7998 22.1367l-0.793945 6.71191c-1.08984 0.428711 -2.17188 0.87793 -3.24609 1.3457l-5.30859 -4.18555c-9.97852 -7.86816 -23.6387 -7.66602 -31.7715 0.46875l-17.5273 17.5273c-8.13477 8.13477 -8.33594 21.7949 -0.467773 31.7744
l4.18555 5.30859c-0.467773 1.07422 -0.916016 2.15723 -1.3457 3.24707l-6.71191 0.793945c-12.6191 1.49316 -22.1367 11.2939 -22.1367 22.7988v24.7871c0 11.5049 9.51758 21.3057 22.1377 22.7988l6.71289 0.793945c0.428711 1.08984 0.87793 2.17188 1.3457 3.24707
l-4.18457 5.30859c-7.86816 9.97656 -7.66699 23.6367 0.466797 31.7715l17.5283 17.5283c8.13672 8.13574 21.7949 8.33594 31.7734 0.467773l5.30859 -4.18652c1.07227 0.467773 2.15332 0.915039 3.24219 1.34473l0.792969 6.71094
c1.49316 12.6211 11.2959 22.1377 22.7998 22.1377h24.7852c11.5059 0 21.3076 -9.51562 22.8008 -22.1348l0.793945 -6.71191c1.08984 -0.429688 2.17285 -0.87793 3.24609 -1.34473l5.30859 4.18555c9.97852 7.86816 23.6377 7.66797 31.7744 -0.467773l17.5264 -17.5273
c8.13477 -8.13574 8.33496 -21.7949 0.46875 -31.7725l-4.18555 -5.30957c0.467773 -1.07422 0.916016 -2.15625 1.3457 -3.24609l6.71289 -0.793945v0zM338.49 267.17v24.7871c0 1.00488 -1.70703 2.6084 -4.48535 2.9375l-12.873 1.52246
c-3.89648 0.459961 -7.16504 3.1582 -8.35449 6.89844c-1.33398 4.19141 -3.03516 8.2959 -5.05762 12.1973c-1.80664 3.48633 -1.4043 7.70801 1.02637 10.792l8.02832 10.1836c1.73145 2.19629 1.80469 4.53809 1.09375 5.24902l-17.5264 17.5254
c-0.708984 0.710938 -3.05176 0.638672 -5.24902 -1.09473l-10.1826 -8.0293c-3.08301 -2.43164 -7.30664 -2.83301 -10.791 -1.02637c-3.90332 2.02148 -8.00684 3.72266 -12.1973 5.05566c-3.74023 1.19043 -6.4375 4.45801 -6.89844 8.35547l-1.52246 12.873
c-0.329102 2.77734 -1.93359 4.48438 -2.9375 4.48438h-24.7861c-1.00488 0 -2.6084 -1.70703 -2.93848 -4.48633l-1.52051 -12.8711c-0.460938 -3.89844 -3.15918 -7.16602 -6.90039 -8.35645c-4.1875 -1.33203 -8.29102 -3.0332 -12.1914 -5.05371
c-3.48828 -1.80762 -7.70898 -1.40527 -10.792 1.02539l-10.1836 8.0293c-2.19824 1.73242 -4.53711 1.80566 -5.24805 1.09473l-17.5273 -17.5264c-0.709961 -0.709961 -0.637695 -3.05078 1.0957 -5.24805l8.02734 -10.1846
c2.43262 -3.08398 2.83301 -7.30469 1.02637 -10.792c-2.02344 -3.90527 -3.72461 -8.00879 -5.05664 -12.1953c-1.18945 -3.74121 -4.45703 -6.43945 -8.35547 -6.90039l-12.873 -1.52246c-2.77832 -0.328125 -4.48438 -1.93262 -4.48438 -2.9375v-24.7871
c0 -1.00488 1.70508 -2.6084 4.48438 -2.9375l12.873 -1.52246c3.89746 -0.460938 7.16504 -3.16016 8.35449 -6.90039c1.33301 -4.19043 3.0332 -8.29395 5.05566 -12.1963c1.80664 -3.4873 1.40527 -7.70801 -1.02637 -10.792l-8.02832 -10.1836
c-1.73242 -2.19629 -1.80664 -4.53809 -1.0957 -5.24902l17.5264 -17.5264c0.710938 -0.709961 3.05078 -0.637695 5.24805 1.09473l10.1826 8.0293c1.80078 1.41992 3.98926 2.14746 6.19336 2.14746c1.56934 0 3.14648 -0.369141 4.59766 -1.12109
c3.90527 -2.02246 8.01074 -3.72363 12.1973 -5.05566c3.74121 -1.18945 6.43945 -4.45801 6.90039 -8.35645l1.52051 -12.873c0.329102 -2.77734 1.93359 -4.48438 2.93848 -4.48438h24.7861c1.00488 0 2.6084 1.70703 2.9375 4.48535l1.52246 12.8721
c0.460938 3.89844 3.1582 7.16602 6.89844 8.35547c4.19141 1.33301 8.29688 3.03516 12.2002 5.05664c3.48828 1.80566 7.70801 1.40527 10.792 -1.02539l10.1836 -8.02832c2.19531 -1.73145 4.53711 -1.80469 5.24902 -1.09473l17.5254 17.5254
c0.710938 0.710938 0.637695 3.05273 -1.09473 5.25l-8.0293 10.1826c-2.43164 3.08301 -2.83301 7.30469 -1.02637 10.792c2.02148 3.90137 3.72363 8.00586 5.05664 12.1963c1.18848 3.74023 4.45703 6.43945 8.35352 6.90039l12.873 1.52246
c2.7793 0.328125 4.48535 1.93262 4.48535 2.9375zM238.173 330.15c27.8965 0 50.5908 -22.6953 50.5908 -50.5908c0 -27.8945 -22.6953 -50.5898 -50.5908 -50.5898s-50.5898 22.6943 -50.5898 50.5898c0 27.8965 22.6943 50.5908 50.5898 50.5908zM238.173 248.97
c16.8682 0 30.5908 13.7236 30.5908 30.5898c-0.000976562 16.8682 -13.7227 30.5908 -30.5908 30.5908c-16.8672 0 -30.5898 -13.7236 -30.5898 -30.5908c0 -16.8662 13.7227 -30.5898 30.5898 -30.5898zM102.911 30.5098c0 5.52344 4.47656 10 10 10
c5.52246 0 10 -4.47656 10 -10c0 -5.52246 -4.47754 -10 -10 -10c-5.52344 0 -10 4.47754 -10 10z" />
    <glyph glyph-name="039-email" unicode="&#xf126;" 
d="M432.846 447.499c44.1992 0 80.1562 -35.957 80.1562 -80.1562v-156.306c0 -11.0684 -8.9707 -20.0391 -20.0391 -20.0391s-20.0391 8.9707 -20.0391 20.0391v156.306c0 1.16602 -0.0625 2.3125 -0.160156 3.45605l-151.523 -139.44
c-3.69824 -3.40137 -8.54004 -5.29199 -13.5693 -5.29199h-102.332c-5.0293 0 -9.87109 1.89062 -13.5693 5.2959l-151.531 139.472c-0.0976562 -1.15137 -0.160156 -2.31348 -0.160156 -3.49121v-236.462c0 -1.11914 0.0585938 -2.22754 0.148438 -3.32715l87.417 81.1387
c8.11035 7.52637 20.791 7.05664 28.3213 -1.05664c7.52637 -8.11328 7.05664 -20.79 -1.05664 -28.3203l-91.4326 -84.8613c5.08398 -2.33691 10.7314 -3.65137 16.6807 -3.65137h352.689c5.87402 0 11.5576 1.26367 16.7236 3.63184
c-22.1328 20.5752 -62.125 57.6709 -91.4678 84.873c-8.11719 7.52637 -8.59473 20.2031 -1.07227 28.3203c7.52637 8.11719 20.2031 8.59473 28.3213 1.07227c0 0 27.0762 -25.1035 54.1406 -50.2188c13.5381 -12.5596 27.0684 -25.123 37.2129 -34.5518
c5.08496 -4.7207 9.31543 -8.66113 12.2744 -11.4209c1.49902 -1.39746 2.67285 -2.49707 3.47559 -3.24805l0.998047 -0.943359c8.81445 -8.3916 7.70215 -20.3135 2.17578 -27.2725c-15.3105 -19.2715 -38.1953 -30.3213 -62.7822 -30.3213h-352.689
c-44.1992 0 -80.1562 35.957 -80.1562 80.1572v236.462c0 44.1992 35.957 80.1562 80.1562 80.1562h352.689zM299.855 266.145l149.593 137.66c-5.06445 2.31641 -10.6807 3.61621 -16.6025 3.61621h-352.689c-5.91016 0 -11.5186 -1.2959 -16.5752 -3.60059
l149.577 -137.676h86.6973zM299.855 266.145z" />
    <glyph glyph-name="064-call" unicode="&#xf13f;" 
d="M470.917 111.931c22.6523 0 41.083 -18.4307 41.084 -41.083v-93.7637c0 -22.6533 -18.4307 -41.084 -41.084 -41.084c-259.666 0 -470.917 211.249 -470.917 470.916c0 22.6533 18.4307 41.084 41.084 41.084h94.0264c22.6533 0 41.084 -18.4307 41.083 -41.085
c0 -31.3604 4.91699 -62.124 14.5977 -91.4443c4.70898 -15 0.77832 -30.9863 -10.1807 -41.9307l-42.1797 -56.0693c35.1523 -66.2627 76.2773 -107.375 143.041 -143.014l57.5693 43.459c8.72266 8.95898 26.292 13.4307 40.584 8.55566
c29.167 -9.63867 59.9453 -14.541 91.292 -14.541z" />
    <glyph glyph-name="097-document-1" unicode="&#xf160;" 
d="M385.887 96c-11.043 0 -20 8.95312 -20 20v252c0 22.0547 -17.9414 40 -40 40h-181.617c-10.125 0 -20.0234 -4.125 -27.1484 -11.3164l-66.0469 -66.6289c-3.22656 -3.25781 -5.79297 -7 -7.64453 -11.0547h55.5703c16.543 0 30 13.457 30 30
c0 11.0469 8.95312 20 20 20s20 -8.95312 20 -20c0 -38.5977 -31.4023 -70 -70 -70h-59v-263c0 -22.0547 17.9453 -40 40 -40h245.891c22.0547 0 40 17.9453 40 40c0 11.0469 8.95312 20 20 20c11.043 0 20 -8.95312 20 -20c0 -44.1133 -35.8906 -80 -80 -80h-245.891
c-44.1133 0 -80 35.8867 -80 80v287.145c0 20.7617 8.05078 40.3203 22.668 55.0664l66.043 66.6328c14.5859 14.7148 34.8359 23.1562 55.5586 23.1562h181.617c44.1133 0 80 -35.8867 80 -80v-252c0 -11.0469 -8.95312 -20 -20 -20zM385.887 96z" />
    <glyph glyph-name="015-shapes-and-symbols-1" unicode="&#xf10e;" 
d="M511.651 261.754c3.37793 -10.4111 0.254883 -21.7812 -7.95312 -28.9824l-111.94 -98.1572l33.0059 -145.37c2.41406 -10.6885 -1.73438 -21.7412 -10.6035 -28.1523c-8.84863 -6.41113 -20.626 -6.92383 -29.9922 -1.32617l-127.671 76.3516l-127.694 -76.3516
c-4.31738 -2.58398 -9.15137 -3.86719 -13.9805 -3.86719c-5.62109 0 -11.2217 1.72949 -15.9883 5.19336c-8.86914 6.41113 -13.0176 17.4639 -10.6035 28.1523l33.0059 145.37l-111.94 98.1572c-8.21191 7.20117 -11.3311 18.5947 -7.95312 28.9824
c3.39648 10.3672 12.5908 17.7217 23.4482 18.7236l148.109 13.4443l58.5244 137.018c4.29297 10.0664 14.1289 16.5635 25.0723 16.5635s20.7754 -6.49707 25.0957 -16.5635l58.5244 -137.018l148.086 -13.4443c10.8574 -0.982422 20.0713 -8.33691 23.4482 -18.7236z
M258.955 37.5928z" />
    <glyph glyph-name="091-supermarket" unicode="&#xf15a;" 
d="M507.465 319.68c3.79688 -4.63281 5.32031 -10.7227 4.14844 -16.5977l-12.5742 -63c-1.89844 -9.50781 -10.25 -16.0898 -19.5898 -16.0898c-1.30078 0 -2.61328 0.128906 -3.9375 0.390625c-10.832 2.16406 -17.8594 12.6953 -15.6992 23.5273l7.80078 39.0859
h-50.5938l-13.7891 -153.996h0.847656c19.0078 0 35.5039 13.5273 39.2266 32.1719c2.16016 10.832 12.6953 17.8555 23.5234 15.6953c10.832 -2.16016 17.8633 -12.6914 15.6992 -23.5234c-7.4375 -37.2852 -40.4336 -64.3438 -78.4492 -64.3438h-233.496l7.32422 -41.4805
c17.918 -5.37109 32.2773 -19.0352 38.5977 -36.5195h116.992c8.21094 22.7188 29.9883 39 55.5039 39c32.5312 0 59 -26.4688 59 -59c0 -32.5352 -26.4688 -59 -59 -59c-25.5156 0 -47.293 16.2812 -55.5039 39h-116.992c-8.21094 -22.7188 -29.9883 -39 -55.5 -39
c-32.5352 0 -59 26.4648 -59 59c0 24.2578 14.7188 45.1367 35.6953 54.1914l-57.0156 322.812l-70.2773 38.4453c-9.69141 5.30078 -13.25 17.4531 -7.94922 27.1445s17.4531 13.25 27.1445 7.94922l78.7031 -43.0547c5.32812 -2.91406 9.04297 -8.08984 10.0977 -14.0664
l10.8516 -61.4258h362.746c5.98828 0 11.6641 -2.68359 15.4648 -7.31641zM283 286.996h-52.8594l13.793 -153.996h39.0664v153.996zM161.004 -24c10.4727 0 18.9961 8.52344 18.9961 19s-8.51953 19 -18.9961 19c-10.4805 0 -19 -8.52344 -19 -19s8.51953 -19 19 -19z
M389 14c-9.57812 0 -17.5 -7.13281 -18.793 -16.3594c0.113281 -0.867188 0.195312 -1.74219 0.195312 -2.64062s-0.0820312 -1.77734 -0.195312 -2.64062c1.29297 -9.23047 9.21484 -16.3594 18.793 -16.3594c10.4766 0 19 8.52344 19 19s-8.52344 19 -19 19z
M136.316 286.996l27.1992 -153.996h40.2578l-13.793 153.996h-53.6641zM363.07 133l13.7891 153.996h-53.8594v-153.996h40.0703zM363.07 133z" />
    <glyph glyph-name="031-plus" unicode="&#xf11e;" 
d="M486.398 217.6c14.1328 0 25.6035 -11.4697 25.6035 -25.5977c0 -14.1328 -11.4707 -25.6035 -25.6035 -25.6035h-204.797v-204.797c0 -14.1328 -11.4707 -25.6035 -25.6035 -25.6035c-14.1279 0 -25.5977 11.4707 -25.5977 25.6035v204.797h-204.802
c-14.1279 0 -25.5986 11.4707 -25.5986 25.6035c0 14.1279 11.4707 25.5977 25.5986 25.5977h204.802v204.802c0 14.1279 11.4697 25.5986 25.5977 25.5986c14.1328 0 25.6035 -11.4707 25.6035 -25.5986v-204.802h204.797zM486.398 217.6z" />
    <glyph glyph-name="047-maternity" unicode="&#xf12e;" 
d="M396.439 -46.0059c3.9043 -3.90625 3.9043 -10.2383 0 -14.1436c-1.95215 -1.95117 -4.5127 -2.92871 -7.07129 -2.92871c-2.55957 0 -5.11816 0.977539 -7.07129 2.92871l-50.7754 50.7764l-24.6641 -0.0351562h-0.21875c-22.9229 0 -45.8965 5.26953 -66.5459 15.2334
l-10.1045 -6.77637c-18.6602 -12.5127 -40.3965 -19.125 -62.8613 -19.125h-0.158203l-27.9004 0.0400391l-41.0322 -41.0322c-1.95215 -1.95117 -4.51172 -2.92871 -7.07129 -2.92871c-2.55859 0 -5.11816 0.977539 -7.07129 2.92871
c-3.9043 3.90625 -3.9043 10.2383 0 14.1436l43.9678 43.9668c1.875 1.875 4.41895 2.92871 7.07031 2.92871h0.0146484l32.0508 -0.0458984h0.130859c18.4863 0 36.3672 5.43945 51.7217 15.7363l47.1895 31.6436c2.57715 1.72852 4.30957 4.36035 4.87988 7.41016
c0.570312 3.05176 -0.0957031 6.13184 -1.87695 8.6748c-3.44922 4.92773 -10.1787 6.34473 -15.3213 3.22559l-20.3965 -12.3652c-5.75195 -3.4873 -12.9404 -2.17578 -17.0898 3.11621c-4.15137 5.29199 -3.71094 12.584 1.04492 17.3389l67.5146 67.5166
c4.28613 4.28516 4.28613 11.2607 0 15.5449c-3.99023 3.99219 -10.3076 4.26367 -14.6191 0.822266l-48.0938 -47.9883c-3.9043 -3.9043 -10.2363 -3.90332 -14.1416 0c-3.90625 3.90625 -3.90527 10.2383 0 14.1436l61.9229 61.8174
c4.28613 4.28613 4.28613 11.2607 0 15.5469c-2.07617 2.0752 -4.83594 3.21973 -7.77344 3.21973c-2.93652 0 -5.69727 -1.14355 -7.77246 -3.21973l-61.8193 -61.9248c-1.95215 -1.95117 -4.51172 -2.92871 -7.07129 -2.92871
c-2.55859 0 -5.11816 0.977539 -7.07031 2.92871c-3.90527 3.90625 -3.90527 10.2383 0 14.1436l47.9873 48.0928c3.44043 4.3125 3.16895 10.6299 -0.820312 14.6201c-2.07617 2.07617 -4.83691 3.21973 -7.77344 3.21973c-2.9375 0 -5.69727 -1.14258 -7.77344 -3.21973
l-47.1133 -47.2188c-1.95215 -1.95215 -4.5127 -2.92969 -7.07129 -2.92969s-5.11816 0.977539 -7.07129 2.92969c-0.00878906 0.00878906 -0.015625 0.0175781 -0.0244141 0.0263672c-0.00878906 0.00976562 -0.0185547 0.0166016 -0.0273438 0.0253906
c-3.90527 3.90625 -3.90527 10.2383 0 14.1426l13.2188 13.2197c1.55469 1.93945 2.40234 4.3291 2.40234 6.84961c0 2.9375 -1.14258 5.69727 -3.21973 7.77344c-2.07617 2.07617 -4.83594 3.21973 -7.77344 3.21973c-2.93652 0 -5.69727 -1.14355 -7.77246 -3.21973
l-4.76074 -4.76074c-0.000976562 0 -0.000976562 -0.000976562 -0.000976562 -0.000976562l-49.626 -49.627c-17.5752 -17.5752 -27.2354 -40.9434 -27.2002 -65.7979l0.0302734 -20.7148c0.00390625 -2.65723 -1.0498 -5.20703 -2.92871 -7.08594l-43.9658 -43.9668
c-1.95215 -1.95215 -4.5127 -2.92969 -7.07129 -2.92969s-5.11816 0.977539 -7.07129 2.92969c-3.9043 3.90527 -3.9043 10.2373 0 14.1426l41.0312 41.0342l-0.0244141 16.5635c-0.0371094 26.6973 9.13379 51.9785 26.0088 72.2402l-4.46289 4.46289
c-15.2832 15.2852 -15.2832 40.1543 0 55.4385c4.9502 4.95117 10.9092 8.28809 17.2207 10.0312c-12.8008 15.3848 -11.9971 38.3418 2.42676 52.7666c5.05176 5.05176 11.1543 8.42285 17.6084 10.1348c-11.0107 15.3105 -9.64453 36.8311 4.11328 50.5889
c7.4043 7.40332 17.248 11.4814 27.7197 11.4814c8.32617 0 16.25 -2.58496 22.8711 -7.36328c1.71289 6.45312 5.08301 12.5527 10.1338 17.6045c15.2842 15.2832 40.1523 15.2842 55.4375 0l21.0088 -21.0088c3.90527 -3.90527 3.9043 -10.2373 0 -14.1426
c-3.9043 -3.90625 -10.2363 -3.90625 -14.1426 0l-21.0078 21.0088c-7.48535 7.48633 -19.667 7.48633 -27.1543 0c-7.01172 -7.01172 -7.45508 -18.1426 -1.33008 -25.6768l57.3389 -57.4854c3.90527 -3.9043 3.90527 -10.2363 0 -14.1416
c-1.95117 -1.95215 -4.51172 -2.92871 -7.07031 -2.92871c-2.55957 0 -5.11816 0.975586 -7.07129 2.92871l-75.4365 75.582c-7.48633 7.48633 -19.6689 7.4873 -27.1543 0c-7.48633 -7.48633 -7.48633 -19.667 0 -27.1543l43.0557 -43.0557
c3.90527 -3.90527 3.90527 -10.2373 0 -14.1416c-1.95215 -1.95215 -4.51172 -2.92969 -7.07129 -2.92969c-2.55859 0 -5.11719 0.976562 -7.07031 2.92969l-24.958 24.959c-7.5332 6.125 -18.665 5.68262 -25.6777 -1.33008c-7.48633 -7.48633 -7.48633 -19.667 0 -27.1533
l25.7705 -25.626l6.33887 6.33887c5.85449 5.85352 13.6367 9.07715 21.916 9.07715s16.0625 -3.22266 21.916 -9.07715c2.67969 -2.68066 4.80078 -5.76855 6.32227 -9.12012l14.3008 14.3008c5.85449 5.85449 13.6367 9.07812 21.916 9.07812
s16.0625 -3.22363 21.916 -9.07812c2.94043 -2.94043 5.21484 -6.36719 6.75293 -10.0996c4.70312 2.76562 10.0732 4.24609 15.6719 4.24609c8.2793 0 16.0625 -3.22363 21.916 -9.07812c5.85352 -5.85352 9.07715 -13.6377 9.07715 -21.916
c0 -5.59863 -1.47852 -10.9697 -4.24512 -15.6719c3.73242 -1.53809 7.15918 -3.81348 10.0996 -6.75293c12.083 -12.084 12.083 -31.7461 0 -43.8301l-39.8291 -39.8291c0.163086 0.00292969 0.324219 0.00390625 0.486328 0.00390625
c9.9668 0 19.7539 -4.71191 25.832 -13.3916c4.88867 -6.98242 6.71875 -15.4404 5.1543 -23.8184c-1.56543 -8.37695 -6.32422 -15.6035 -13.4023 -20.3496l-17.291 -11.5957c14.9131 -5.58105 30.8477 -8.50586 46.7529 -8.50586h0.189453l28.8154 0.0410156h0.0136719
c2.65234 0 5.19531 -1.05371 7.07129 -2.92871zM104.355 198.973l6.47266 6.47363l-5.52637 5.52539c-7.5332 6.125 -18.665 5.68359 -25.6777 -1.33008c-7.48633 -7.48535 -7.48633 -19.667 0 -27.1533l4.12305 -4.12305l20.6055 20.6055
c0.000976562 0.000976562 0.000976562 0.000976562 0.00292969 0.00195312zM509.07 66.6182c1.85938 -1.86035 2.92969 -4.42871 2.92969 -7.07031c0 -2.62988 -1.07031 -5.19922 -2.92969 -7.06934c-1.86035 -1.86035 -4.44043 -2.93066 -7.07031 -2.93066
s-5.20996 1.07129 -7.07031 2.93066c-1.85938 1.85938 -2.92969 4.43945 -2.92969 7.06934c0 2.64062 1.07031 5.20996 2.92969 7.07031c1.86035 1.87012 4.44043 2.92969 7.07031 2.92969s5.20996 -1.05957 7.07031 -2.92969zM482.18 93.5117
c3.90527 -3.90527 3.90527 -10.2373 0 -14.1426c-1.95215 -1.95215 -4.51172 -2.92871 -7.07031 -2.92871c-2.55957 0 -5.11816 0.976562 -7.07129 2.92871l-26.8213 26.8213c-1.87891 1.87891 -2.93262 4.42871 -2.92871 7.08594l0.0625 44.582
c0.0380859 26.5557 -7.75977 52.251 -22.5508 74.3086l-44.0146 65.6377c-2.99414 4.46484 -7.55273 7.46875 -12.8379 8.45508c-5.28125 0.987305 -10.6201 -0.167969 -15.0244 -3.25098c-8.5332 -5.97461 -10.9873 -17.6338 -5.58691 -26.542l17.2002 -28.3721
c3.80859 -6.2832 2.37695 -14.1338 -3.40332 -18.668c-5.78027 -4.53516 -13.7471 -4.05371 -18.9404 1.14062l-56.1445 56.1436c-3.90527 3.90625 -3.90527 10.2383 0 14.1426c3.90625 3.9043 10.2383 3.9043 14.1436 0l26.1348 -26.1357
c-5.12305 16.2266 0.637695 34.5303 15.126 44.6748c8.8418 6.19238 19.5547 8.51172 30.167 6.5293c10.6113 -1.98145 19.7656 -8.01074 25.7783 -16.9766l44.0146 -65.6387c17.0137 -25.3721 25.9824 -54.9287 25.9395 -85.4766l-0.0576172 -40.4316zM267.68 324.358
c1.87012 -1.86035 2.94043 -4.44043 2.94043 -7.07031s-1.07031 -5.20996 -2.94043 -7.07031c-1.85938 -1.85938 -4.42969 -2.92969 -7.05957 -2.92969c-2.63965 0 -5.20996 1.07031 -7.08008 2.92969c-1.86035 1.86035 -2.92969 4.43066 -2.92969 7.07031
c0 2.62988 1.06934 5.20996 2.92969 7.07031c1.87012 1.85938 4.44043 2.92969 7.08008 2.92969c2.62988 0 5.20996 -1.07031 7.05957 -2.92969zM360.485 169.176l-4.36328 -4.36035c-10.876 -10.876 -10.876 -28.5742 0 -39.4502
c3.90625 -3.90625 3.90527 -10.2383 0 -14.1436c-1.95215 -1.95215 -4.51172 -2.92871 -7.07129 -2.92871c-2.55859 0 -5.11816 0.976562 -7.07031 2.92871c-18.6748 18.6748 -18.6748 49.0605 0 67.7354l4.36133 4.3623c3.90625 3.90332 10.2383 3.90332 14.1436 0
c3.9043 -3.90625 3.9043 -10.2383 0 -14.1436zM477.299 393.998c19.1338 0 34.7012 -15.8506 34.7012 -35.335c0 -11.042 -7.93945 -24.3037 -24.2715 -40.543c-10.9951 -10.9336 -21.8428 -19.2559 -22.2998 -19.6055
c-1.79297 -1.37109 -3.93262 -2.05566 -6.07324 -2.05566c-2.1416 0 -4.28223 0.68457 -6.07422 2.05566c-0.457031 0.349609 -11.3047 8.6709 -22.2998 19.6055c-16.332 16.2402 -24.2715 29.501 -24.2715 40.543c0 19.4834 15.5674 35.335 34.7012 35.335
c6.35645 0 12.5713 -1.80371 17.9443 -5.10352c5.37207 3.2998 11.5869 5.10352 17.9434 5.10352zM459.352 319.252c16.7139 13.8955 32.6484 31.6104 32.6484 39.4111c0 8.45605 -6.59473 15.335 -14.7012 15.335c-4.03223 0 -7.79395 -1.67188 -10.5938 -4.70703
c-1.89355 -2.05176 -4.55762 -3.21875 -7.34961 -3.21875s-5.45605 1.16699 -7.35059 3.21875c-2.7998 3.03613 -6.56152 4.70703 -10.5938 4.70703c-8.10645 0 -14.7012 -6.87891 -14.7012 -15.335c0 -7.82129 15.9297 -25.5312 32.6416 -39.4111zM70.5889 447.997
c19.1338 0 34.7012 -15.8506 34.7012 -35.335c0 -11.042 -7.93945 -24.3027 -24.2715 -40.543c-10.9951 -10.9336 -21.8428 -19.2559 -22.2998 -19.6055c-1.79297 -1.37109 -3.93262 -2.05566 -6.07422 -2.05566c-2.14062 0 -4.28125 0.68457 -6.07324 2.05566
c-0.456055 0.349609 -11.3047 8.67188 -22.2998 19.6064c-16.332 16.2402 -24.2715 29.501 -24.2715 40.543c0 19.4844 15.5674 35.335 34.7012 35.334c6.35645 0 12.5713 -1.80371 17.9434 -5.10352c5.37305 3.2998 11.5879 5.10352 17.9443 5.10352zM52.6416 373.252
c16.7139 13.8955 32.6484 31.6113 32.6484 39.4111c0 8.45605 -6.59473 15.335 -14.7012 15.335c-4.03223 0 -7.79395 -1.67188 -10.5938 -4.70703c-1.89355 -2.05176 -4.55859 -3.21875 -7.35059 -3.21875s-5.45508 1.16699 -7.34961 3.21875
c-2.7998 3.03613 -6.56152 4.70703 -10.5938 4.70703c-8.10645 0 -14.7012 -6.87891 -14.7012 -15.335c0 -7.82227 15.9287 -25.5312 32.6416 -39.4111z" />
    <glyph glyph-name="089-filter" unicode="&#xf158;" 
d="M491.999 448c11.0469 0 20 -8.95312 20 -20s-8.95312 -20 -20 -20h-20v-59.7109c0 -19.1641 -6.89062 -37.7109 -19.4023 -52.2305l-38.0234 -44.1172c-3.95312 -4.58984 -9.53906 -6.94141 -15.1562 -6.94141c-4.625 0 -9.26953 1.59375 -13.0469 4.85156
c-8.36719 7.21094 -9.30469 19.8398 -2.09375 28.207l24.9453 28.9414h-306.44l113.816 -132.058c12.5117 -14.5195 19.4023 -33.0664 19.4023 -52.2305v-100.848l39.999 -27.6914v128.539c0 19.1641 6.89062 37.7109 19.4023 52.2266l27.6797 32.1201
c7.21484 8.36328 19.8438 9.30078 28.207 2.08984c8.36719 -7.21094 9.30469 -19.8389 2.09375 -28.2061l-27.6836 -32.1172c-6.25391 -7.25781 -9.69922 -16.5312 -9.69922 -26.1133v-166.711c0 -7.4375 -4.12891 -14.2617 -10.7188 -17.7148
c-2.91797 -1.53125 -6.10547 -2.28516 -9.28125 -2.28516c-3.99609 0 -7.97656 1.19531 -11.3828 3.55469l-79.999 55.3867c-5.39844 3.73438 -8.61719 9.87891 -8.61719 16.4414v111.328c0 9.58203 -3.44531 18.8555 -9.70312 26.1133l-126.895 147.233
c-12.5117 14.5195 -19.4023 33.0664 -19.4023 52.2305v59.7109h-20c-11.0469 0 -20 8.95312 -20 20s8.95312 20 20 20h471.999zM431.999 348.289v59.7109h-351.999v-59.7109c0 -0.429688 0.015625 -0.859375 0.03125 -1.28906h351.94
c0.0117188 0.429688 0.0273438 0.859375 0.0273438 1.28906zM431.999 348.289z" />
    <glyph glyph-name="008-broken-link" unicode="&#xf107;" 
d="M212.263 57.7568c8.33105 8.33105 21.8398 8.33105 30.1709 0c8.33008 -8.33105 8.33008 -21.8389 0 -30.1699l-60.3311 -60.3301c-41.6748 -41.6758 -109.202 -41.6758 -150.851 0c-41.6543 41.6533 -41.6543 109.176 0 150.829l120.681 120.682
c41.6533 41.6533 109.176 41.6533 150.829 0c8.33105 -8.33105 8.33105 -21.8389 0 -30.1699s-21.8389 -8.33105 -30.1699 0c-24.9902 24.9922 -65.499 24.9922 -90.4902 0l-120.682 -120.682c-24.9902 -24.9902 -24.9902 -65.499 0.00488281 -90.4951
c24.9912 -25.0059 65.4961 -25.0059 90.5078 0.00585938zM480.75 265.922l-132.734 -132.734c-41.6533 -41.6533 -109.176 -41.6533 -150.829 0c-8.33105 8.33105 -8.33105 21.8389 0 30.1699s21.8389 8.33105 30.1699 0c24.9902 -24.9922 65.498 -24.9922 90.4902 0
l132.734 132.734c24.9902 24.9902 24.9902 65.499 0 90.4902c-24.9922 24.9912 -65.5049 24.9912 -90.5127 0l-72.3828 -72.3838c-8.33105 -8.33105 -21.8389 -8.33105 -30.1699 0c-8.33008 8.33105 -8.33008 21.8389 0 30.1699l72.3887 72.3887
c41.6748 41.6475 109.193 41.6475 150.846 -0.00585938c41.6543 -41.6533 41.6543 -109.176 0 -150.829zM399.095 79.0781l63.9775 -63.9785c8.33105 -8.33008 8.33105 -21.8379 0 -30.1689s-21.8389 -8.33105 -30.1689 0l-63.9785 63.9775
c-8.33105 8.33105 -8.33105 21.8389 0 30.1699s21.8389 8.33105 30.1699 0zM112.944 304.889l-64.042 64.042c-8.33105 8.33105 -8.33105 21.8389 0 30.1699s21.8389 8.33105 30.1699 0l64.042 -64.042c8.33105 -8.33105 8.33105 -21.8389 0 -30.1699
s-21.8389 -8.33105 -30.1699 0zM490.664 128.004c11.7822 0 21.333 -9.55078 21.333 -21.333s-9.55078 -21.333 -21.333 -21.333h-63.999c-11.7822 0 -21.333 9.55078 -21.333 21.333s9.55078 21.333 21.333 21.333h63.999zM170.668 341.334
c-11.7822 0 -21.334 9.55176 -21.333 21.334v63.999c0 11.7822 9.55078 21.333 21.333 21.333s21.333 -9.55078 21.333 -21.334v-63.999c0 -11.7822 -9.55078 -21.333 -21.333 -21.333zM21.3359 256.002c-11.7822 0 -21.333 9.55078 -21.333 21.333
s9.55078 21.333 21.333 21.333h63.999c11.7822 0 21.333 -9.55078 21.333 -21.333s-9.55078 -21.333 -21.333 -21.333h-63.999zM341.332 42.6719c11.7822 0 21.334 -9.55176 21.333 -21.333v-63.999c0 -11.7822 -9.55078 -21.333 -21.333 -21.333
s-21.333 9.55078 -21.333 21.333v63.999c0 11.7822 9.55078 21.333 21.333 21.333z" />
    <glyph glyph-name="040-user" unicode="&#xf127;" 
d="M471.387 122.988c25.8086 -22.6758 40.6133 -55.4727 40.6133 -89.9883v-37c0 -33.0859 -26.9141 -60 -60 -60h-392c-33.0859 0 -60 26.9141 -60 60v37c0 34.5156 14.8047 67.3125 40.6133 89.9883c20.8945 18.3633 60.9102 45.582 125.238 59.7227
c-35.1562 27.082 -57.8516 69.582 -57.8516 117.289c0 81.6055 66.3945 148 148 148s148 -66.3945 148 -148s-66.3945 -148 -148 -148c-109.902 0 -168.777 -41.3008 -188.984 -59.0586c-17.168 -15.0859 -27.0156 -36.9297 -27.0156 -59.9414v-37
c0 -11.0273 8.97266 -20 20 -20h392c11.0273 0 20 8.97266 20 20v37c0 23.0117 -9.84766 44.8555 -27.0156 59.9414c-13.9258 12.2383 -31.0898 22.9297 -51.0078 31.7812c-10.0938 4.48828 -14.6406 16.3047 -10.1562 26.3984s16.3008 14.6406 26.3984 10.1562
c23.6211 -10.4961 44.1992 -23.3789 61.168 -38.2891zM148 300c0 -59.5508 48.4492 -108 108 -108s108 48.4492 108 108s-48.4492 108 -108 108s-108 -48.4492 -108 -108zM148 300z" />
    <glyph glyph-name="093-chat" unicode="&#xf15c;" 
d="M134.527 29.9883c-4.13281 0 -8.30078 0.800781 -12.2812 2.45312c-12.0039 4.96875 -19.7617 16.5781 -19.7617 29.5703v33.9961c0 12.1289 -9.86719 22 -21.9961 22c-44.1055 0 -79.9883 35.8828 -79.9883 79.9883v170.016c0 44.1055 35.8828 79.9883 79.9883 79.9883
h271.965c44.1055 0 79.9883 -35.8828 79.9883 -79.9883v-170.016c0 -44.1055 -35.8828 -79.9883 -79.9883 -79.9883h-86.3711c-19.5586 0 -37.9453 -7.61719 -51.7734 -21.4453l-57.1836 -57.1836c-6.13672 -6.13672 -14.2891 -9.39062 -22.5977 -9.39062zM80.4883 408.004
c-22.0508 0 -39.9922 -17.9414 -39.9922 -39.9922v-170.016c0 -22.0547 17.9414 -39.9961 39.9922 -39.9961c34.1836 0 61.9922 -27.8086 61.9922 -61.9922v-14.7109l43.5469 43.543c21.3828 21.3828 49.8125 33.1602 80.0547 33.1602h86.3711
c22.0547 0 39.9961 17.9414 39.9961 39.9961v170.016c0 22.0508 -17.9414 39.9922 -39.9961 39.9922h-271.965zM390.688 -61.5469c-3.98438 -1.64844 -8.15234 -2.45312 -12.2812 -2.45312c-8.3125 0 -16.4609 3.25391 -22.5977 9.39062l-57.1836 57.1836
c-13.8281 13.8281 -32.2148 21.4453 -51.7734 21.4453h-16.3828c-11.043 0 -19.9961 8.95312 -19.9961 19.9961c0 11.0469 8.95312 19.9961 19.9961 19.9961h16.3828c30.2383 0 58.668 -11.7734 80.0547 -33.1562l43.543 -43.5469v14.7148
c0 34.1797 27.8086 61.9883 61.9922 61.9883c22.0547 0 39.9961 17.9414 39.9961 39.9961v210.012c0 11.043 8.95312 19.9961 19.9961 19.9961s19.9961 -8.95312 19.9961 -19.9961v-210.012c0 -44.1055 -35.8828 -79.9883 -79.9883 -79.9883
c-12.1289 0 -21.9961 -9.86719 -21.9961 -21.9961v-34c0 -12.9922 -7.75781 -24.5977 -19.7578 -29.5703zM237.469 281.984c0 -11.0469 -8.95312 -19.9961 -19.9961 -19.9961c-11.0469 0 -20 8.94922 -20 19.9961c0 11.043 8.95312 19.9961 20 19.9961
c11.043 0 19.9961 -8.95312 19.9961 -19.9961zM317.457 281.984c0 -11.0469 -8.95312 -19.9961 -19.9961 -19.9961c-11.0469 0 -19.9961 8.94922 -19.9961 19.9961c0 11.043 8.94922 19.9961 19.9961 19.9961c11.043 0 19.9961 -8.95312 19.9961 -19.9961zM157.48 281.984
c0 -11.0469 -8.95312 -19.9961 -20 -19.9961c-11.043 0 -19.9961 8.94922 -19.9961 19.9961c0 11.043 8.95312 19.9961 19.9961 19.9961c11.0469 0 20 -8.95312 20 -19.9961zM157.48 281.984z" />
    <glyph glyph-name="079-quote-left" unicode="&#xf14e;" 
d="M177.229 211.69c16.4082 0 30.3613 -5.74414 41.8447 -17.2275c11.4932 -11.4932 17.2373 -25.4346 17.2373 -41.8496v-118.148c0 -16.4189 -5.74414 -30.3604 -17.2295 -41.8516c-11.4893 -11.4854 -25.4375 -17.2275 -41.8457 -17.2275h-118.158
c-16.4092 0 -30.3613 5.74219 -41.8496 17.2275c-11.4873 11.4912 -17.2285 25.4326 -17.2285 41.8516v216.609c0 21.334 4.1543 41.6934 12.4629 61.0781c8.30762 19.3877 19.5361 36.1553 33.6914 50.3047c14.1553 14.1553 30.9219 25.3877 50.3066 33.6963
c19.3877 8.30371 39.7422 12.4619 61.0771 12.4619h19.6914c5.33301 0 9.94727 -1.95312 13.8447 -5.8457c3.89648 -3.89844 5.8457 -8.51562 5.8457 -13.8486v-39.3877c0 -5.33398 -1.94824 -9.94727 -5.8457 -13.8457c-3.89844 -3.89551 -8.5127 -5.8457 -13.8447 -5.8457
h-19.6914c-21.7422 0 -40.3086 -7.69336 -55.6934 -23.0742c-15.3867 -15.3867 -23.0801 -33.9492 -23.0801 -55.6943v-9.8418c0 -8.20703 2.87402 -15.1816 8.61523 -20.9258c5.74414 -5.74414 12.7197 -8.61523 20.9258 -8.61523h68.9238zM494.779 194.463
c11.4854 -11.4932 17.2207 -25.4336 17.2197 -41.8496v-118.148c0 -16.4189 -5.73438 -30.3604 -17.2275 -41.8516c-11.4834 -11.4854 -25.4316 -17.2275 -41.8438 -17.2275h-118.152c-16.4121 0 -30.3604 5.74219 -41.8457 17.2275
c-11.4844 11.4912 -17.2305 25.4326 -17.2305 41.8516v216.609c0 21.334 4.16016 41.6934 12.4658 61.0781c8.30469 19.3877 19.5391 36.1553 33.6943 50.3047c14.1562 14.1553 30.918 25.3877 50.2988 33.6963c19.3926 8.30371 39.7432 12.4619 61.0908 12.4619h19.6865
c5.33398 0 9.95117 -1.95312 13.8457 -5.8457c3.89551 -3.89844 5.84961 -8.51562 5.84961 -13.8486v-39.3877c0 -5.33398 -1.95605 -9.94727 -5.84961 -13.8457c-3.89551 -3.89551 -8.5127 -5.8457 -13.8457 -5.8457h-19.6865
c-21.7539 0 -40.3184 -7.69336 -55.6982 -23.0742c-15.3789 -15.3867 -23.0732 -33.9492 -23.0732 -55.6943v-9.8418c0 -8.20703 2.86914 -15.1816 8.61523 -20.9258c5.73438 -5.74414 12.7168 -8.61523 20.9189 -8.61523h68.9219
c16.4131 0 30.3613 -5.74414 41.8457 -17.2275z" />
    <glyph glyph-name="024-gift" unicode="&#xf117;" 
d="M456.011 360.023c18.748 0 34.002 -15.2529 34.002 -34.002v-60.0039c0 -18.0752 -14.1807 -32.8984 -32.002 -33.9375v-93.0693c0 -5.52148 -4.47656 -10 -10 -10s-10.001 4.47852 -10.001 10v93.0059h-136.007v-276.016h114.006
c12.1318 0 22.001 9.87012 22.001 22.001v71.0039c0 5.52246 4.47754 10.001 10.001 10.001s10 -4.47852 10 -10.001v-71.0039c0 -23.1602 -18.8418 -42.002 -42.002 -42.002h-320.018c-23.1602 0 -42.002 18.8418 -42.002 42.002v254.078
c-17.8213 1.03906 -32.002 15.8613 -32.002 33.9375v60.0039c0 18.749 15.2529 34.002 34.002 34.002h55.9268c-7.53809 9.28125 -12.0674 21.1006 -12.0674 33.9619c0 20.6094 11.4609 39.1191 29.9082 48.3057c18.4482 9.18555 40.126 7.17773 56.5732 -5.24121
l41.083 -31.0244c7.85645 6.25195 17.7891 10.001 28.5869 10.001s20.7305 -3.74902 28.5869 -10.001l41.083 31.0244c16.4473 12.418 38.124 14.4287 56.5732 5.24121c18.4473 -9.18652 29.9082 -27.6973 29.9082 -48.3057c0 -12.8613 -4.5293 -24.6807 -12.0674 -33.9619
h55.9268zM337.723 421.088l-40.5342 -30.6094c3.07422 -6.16602 4.81445 -13.1094 4.81445 -20.4551v-10h56.1855c18.7275 0 33.9619 15.2344 33.9619 33.9619c0 13.166 -7.03613 24.5312 -18.8232 30.4004c-11.7871 5.87109 -25.0967 4.63574 -35.6045 -3.29785z
M229.999 340.022v-88.0049h52.002v88.0049h-52.002zM256 396.025c-14.3379 0 -26.001 -11.6641 -26.001 -26.002v-10h52.002v10c0 14.3369 -11.6641 26.002 -26.001 26.002zM119.85 393.985c0 -18.7266 15.2344 -33.9619 33.9619 -33.9609h56.1855v10
c0 7.34473 1.73926 14.2881 4.81445 20.4541l-40.5352 30.6094c-10.5078 7.93359 -23.8174 9.16797 -35.6035 3.29785c-11.7861 -5.86816 -18.8232 -17.2334 -18.8232 -30.4004zM41.9883 266.018c0 -7.71875 6.28027 -14 14.001 -14h8h146.008v88.0049h-154.008
c-7.7207 0 -14.001 -6.28027 -14.001 -14.001v-60.0039zM73.9902 -21.998c0 -12.1309 9.86914 -22.001 22.001 -22.001h114.006v276.016h-136.007v-254.015zM229.999 -43.999h52.002v276.016h-52.002v-276.016zM470.012 266.018v60.0039
c0 7.7207 -6.28027 14.001 -14.001 14.001h-154.008v-88.0049h146.008h8c7.7207 0 14.001 6.28027 14.001 14zM448.011 104.009c2.62988 0 5.20996 -1.06934 7.07031 -2.92969s2.92969 -4.44043 2.92969 -7.07031s-1.06934 -5.20996 -2.92969 -7.06934
c-1.86035 -1.86133 -4.44043 -2.93164 -7.07031 -2.93164c-2.63086 0 -5.21094 1.07129 -7.07031 2.93164c-1.86035 1.85938 -2.93066 4.43945 -2.93066 7.06934s1.07031 5.20996 2.93066 7.07031c1.85938 1.86133 4.43945 2.92969 7.07031 2.92969z" />
    <glyph glyph-name="023-ruler" unicode="&#xf116;" 
d="M245.469 -43.9932h98.9639l-62.6963 62.1787h-143.558c-12.5078 0 -22.6836 10.1748 -22.6836 22.6826v142.185l-63.1729 62.6543v-259.098c0 -16.874 13.7285 -30.6025 30.6035 -30.6025h73.2471c5.52344 0 10.0029 -4.47949 10.0029 -10.0029
c0 -5.52441 -4.47949 -10.0039 -10.0029 -10.0039h-73.2471c-27.9082 0 -50.6104 22.7041 -50.6104 50.6094v283.107v53.4736c0 33.4502 41.8486 50.5273 65.2979 26.8994l345.528 -348.236c23.4951 -23.6758 6.36426 -65.6797 -27.0312 -65.752l-170.642 -0.101562
c-5.52344 0 -10.0029 4.47949 -10.0029 10.0039c0 5.52344 4.47949 10.0029 10.0029 10.0029zM57.8027 336.2c-3.4834 -3.40137 -5.48047 -8.14355 -5.48047 -13.0098v-49.3047l320.519 -317.873l43.2305 0.0927734c16.0479 0.0351562 24.0811 20.3604 12.8721 31.6533
l-25.6543 25.8555l-15.3125 -15.3115c-3.8457 -3.84375 -10.3047 -3.84277 -14.1475 0c-3.90625 3.90723 -3.90625 10.2412 0 14.1475l15.3672 15.3672l-25.7559 25.958l-15.4688 -15.4688c-3.84473 -3.84277 -10.3047 -3.8418 -14.1475 0
c-3.90625 3.90723 -3.90625 10.2422 0 14.1484l15.5234 15.5234l-25.7568 25.957l-15.625 -15.625c-3.84473 -3.84277 -10.3037 -3.8418 -14.1475 0c-3.90625 3.90723 -3.90625 10.2412 0 14.1475l15.6797 15.6807l-25.7559 25.958l-15.7812 -15.7803
c-3.8457 -3.84375 -10.3047 -3.84277 -14.1484 0c-3.90625 3.90723 -3.90625 10.2412 0 14.1475l15.8369 15.8359l-25.7559 25.958l-15.9365 -15.9365c-3.8457 -3.84375 -10.3037 -3.84277 -14.1484 0c-3.90625 3.90723 -3.90625 10.2412 0 14.1475l15.9932 15.9922
l-25.7568 25.958l-16.0938 -16.0918c-3.8457 -3.84375 -10.3037 -3.84277 -14.1475 0c-3.90625 3.90723 -3.90625 10.2412 0 14.1475l16.1484 16.1484l-25.7559 25.958l-16.249 -16.249c-3.84473 -3.84277 -10.3027 -3.8418 -14.1475 0
c-3.90625 3.90723 -3.90625 10.2422 0 14.1484l16.3037 16.3037l-25.7559 25.957l-16.4062 -16.4053c-3.84473 -3.84277 -10.3027 -3.8418 -14.1475 0c-3.90625 3.90723 -3.90625 10.2412 0 14.1475l16.4609 16.4609l-26.8438 27.0537
c-7.00586 7.05957 -18.4932 7.14941 -25.6084 0.202148zM138.179 38.1924h123.385l-126.062 125.021v-122.345c0 -1.47559 1.20117 -2.67578 2.67676 -2.67578zM205.601 -44.7627c4.20801 -1.72363 6.76367 -6.26758 6.06055 -10.7568
c-0.642578 -4.10938 -3.84766 -7.46289 -7.93164 -8.2793c-4.14746 -0.829102 -8.50098 1.13867 -10.6094 4.80664c-2.04883 3.56445 -1.69043 8.16016 0.927734 11.3428c2.76074 3.35547 7.53809 4.56055 11.5527 2.88672zM469.682 108.495
c-2.54102 0 -5.08301 0.961914 -7.0332 2.88867l-10.7646 10.6416c-58.0977 25.7861 -110.341 61.6465 -155.287 106.593l-141.451 141.451c-17.3203 17.3223 -17.3203 45.5059 0 62.8271c17.3223 17.3203 45.5068 17.3203 62.8271 0l4.08301 -4.08301l6.03516 6.03516
c17.5352 17.5371 46.8164 17.5371 64.3516 0l49.5127 -49.5117c3.90625 -3.90723 3.90625 -10.2422 0 -14.1484c-3.9082 -3.90527 -10.2402 -3.90527 -14.1484 0l-49.5127 49.5117c-9.82227 9.8252 -26.2344 9.82422 -36.0557 0l-6.03516 -6.03418l123.221 -123.221
c44.9316 -44.9326 80.7832 -97.1592 106.566 -155.23l10.7236 -10.6006c3.92969 -3.88477 3.96582 -10.2188 0.0820312 -14.1484c-1.95703 -1.97949 -4.53516 -2.9707 -7.11426 -2.9707zM338.202 284.37l-116.147 116.147l-34.5322 -34.5312l116.147 -116.149z
M169.293 418.748c-9.52148 -9.52051 -9.52148 -25.0127 0 -34.5332l4.08203 -4.08203l34.5332 34.5332l-4.08301 4.08203c-9.39258 9.39355 -25.1396 9.39258 -34.5322 0zM317.889 235.761c35.334 -33.9521 75.1572 -62.2344 118.736 -84.3447
c-22.1094 43.5781 -50.3926 83.4023 -84.3447 118.736z" />
    <glyph glyph-name="003-bin" unicode="&#xf102;" 
d="M328.533 4.2666c0 18.8516 15.2822 34.1338 34.1328 34.1338c18.8428 -0.0185547 34.1143 -15.2891 34.1328 -34.1338c0 -18.8506 -15.2822 -34.1328 -34.1328 -34.1328s-34.1328 15.2822 -34.1328 34.1328zM379.733 4.2666c0 9.42578 -7.6416 17.0674 -17.0674 17.0674
s-17.0674 -7.64062 -17.0674 -17.0674c0 -9.42578 7.6416 -17.0664 17.0674 -17.0664c9.4209 0.0117188 17.0547 7.64551 17.0674 17.0664zM268.8 302.933c14.1387 0 25.6006 -11.4609 25.6006 -25.5996s-11.4619 -25.5996 -25.6006 -25.5996h-68.2666
c-14.1396 0 -25.6006 11.4619 -25.6006 25.5996s11.4619 25.5996 25.6006 25.5996h68.2666zM268.8 268.8c4.71289 0 8.5332 3.82031 8.5332 8.5332s-3.82031 8.5332 -8.5332 8.5332h-68.2666c-4.71289 0 -8.5332 -3.82031 -8.5332 -8.5332s3.82031 -8.5332 8.5332 -8.5332
h68.2666zM439.467 396.8c14.1387 0 25.6006 -11.46 25.6006 -25.5986c0 -14.1396 -11.4619 -25.6006 -25.6006 -25.6006h-27.1719c-3.59277 -10.1982 -13.2148 -17.0332 -24.0283 -17.0664h-0.361328l-11.1709 -257.474c34.2139 -7.20117 57.4551 -39.0928 53.833 -73.8682
c-3.62207 -34.7764 -32.9365 -61.1943 -67.9004 -61.1914h-223.317c-22.8672 -0.0410156 -41.6748 18.0078 -42.5742 40.8584l-15.3447 351.675h-8.89648c-14.1396 0 -25.6006 11.4609 -25.6006 25.5996c0 14.1396 11.4629 25.6006 25.6006 25.6006h0.862305
c4.0791 19.8486 21.5381 34.1045 41.8037 34.1328h59.7324v8.5332c0.015625 14.1318 11.4688 25.585 25.6006 25.5996h68.2666c14.1318 -0.0146484 25.585 -11.4678 25.6006 -25.5996v-8.5332h93.8662c10.8145 -0.0341797 20.4365 -6.86816 24.0283 -17.0674h27.1719z
M192 422.4v-8.5332h85.333v8.5332c-0.00292969 4.71094 -3.82129 8.5293 -8.5332 8.53223h-68.2666c-4.71094 -0.00292969 -8.53027 -3.82129 -8.5332 -8.53223zM139.35 -46.9326v-0.000976562h178.314c-20.9717 18.3477 -28.6533 47.6182 -19.3916 73.8994
c9.26074 26.2812 33.5957 44.2705 61.4365 45.417l11.1162 256.15h-272.309l15.3086 -350.941c0.52832 -13.709 11.8057 -24.5439 25.5244 -24.5244zM413.867 4.2666c-0.0351562 26.375 -20.0801 48.4189 -46.333 50.9541l-0.0253906 -0.00390625l-0.0244141 0.00585938
c-1.58789 0.149414 -3.19141 0.244141 -4.81738 0.244141c-20.709 0 -39.3779 -12.4746 -47.3027 -31.6064c-7.92383 -19.1328 -3.54395 -41.1543 11.0986 -55.7969c14.6436 -14.6436 36.665 -19.0244 55.7969 -11.0996c19.1328 7.9248 31.6074 26.5947 31.6074 47.3027z
M396.8 354.133v8.5332h-324.267c-4.71289 0 -8.5332 -3.82031 -8.5332 -8.5332c0 -4.71191 3.82031 -8.5332 8.5332 -8.5332h315.733c4.71094 0.00292969 8.53027 3.82227 8.5332 8.5332zM396.8 379.733v8.5332c-0.00292969 4.71094 -3.82129 8.53027 -8.5332 8.5332
h-273.066c-10.8467 -0.0136719 -20.5117 -6.84668 -24.1426 -17.0664h305.742zM439.467 362.667c4.71289 0 8.5332 3.82031 8.5332 8.5332s-3.82031 8.5332 -8.5332 8.5332h-25.5996v-17.0664h25.5996z" />
    <glyph glyph-name="077-right-arrow-2" unicode="&#xf14c;" 
d="M344.774 366.591l161.812 -161.827c7.21875 -6.95898 7.21875 -18.5684 0 -25.543l-161.812 -161.812c-6.95801 -7.21875 -18.584 -7.21875 -25.8027 0c-6.97559 6.95898 -6.97559 18.584 0 25.8037l130.837 130.593h-431.745
c-10.0645 0 -18.0635 8.25977 -18.0635 18.3242s7.99902 18.0645 18.0635 18.0801h431.745l-130.837 130.838c-6.97559 6.95898 -6.97559 18.5674 0 25.543c7.21875 7.21875 18.8281 7.21875 25.8027 0z" />
    <glyph glyph-name="028-right-arrow" unicode="&#xf11b;" 
d="M292.428 -27.4287l-25.8574 25.7139l175.429 175.429h-441.999v36.5723h442l-175.357 175.357l25.8574 25.7852l219.499 -219.429z" />
    <glyph glyph-name="058-target" unicode="&#xf139;" 
d="M489.129 405.629c5.52344 0 10.001 -4.47656 10.001 -10c0 -5.52246 -4.47656 -10 -10 -10h-37.8613l-48.6201 -48.7529c-0.0126953 -0.0107422 -0.0214844 -0.0244141 -0.0332031 -0.0361328c-0.0136719 -0.0126953 -0.0283203 -0.0234375 -0.0410156 -0.0371094
l-42.2764 -42.3906c16.4043 -18.3994 28.3613 -40.3789 34.7969 -64.125c3.66797 -13.5303 5.52734 -27.5625 5.52734 -41.708c0 -87.7109 -71.3584 -159.069 -159.069 -159.069s-159.07 71.3584 -159.07 159.069s71.3574 159.069 159.068 159.069
c38.8105 0 75.5508 -13.8467 104.527 -39.1719l35.0986 35.1953c-38.3848 34.6318 -87.582 53.5898 -139.627 53.5898c-115.067 0 -208.683 -93.6143 -208.683 -208.683c0 -115.069 93.6152 -208.683 208.683 -208.683c115.068 0 208.684 93.6143 208.684 208.683
c0 31.7529 -6.94531 62.2383 -20.6416 90.6074c-2.40039 4.97461 -0.31543 10.9521 4.6582 13.3535c4.97168 2.40234 10.9521 0.316406 13.3525 -4.6582c15.0166 -31.1035 22.6309 -64.5137 22.6309 -99.3027c0 -61.083 -23.7871 -118.511 -66.9795 -161.703
c-6.56934 -6.56836 -13.4707 -12.6807 -20.6611 -18.3369l55.4668 -55.4668c3.90625 -3.90625 3.90527 -10.2383 0 -14.1436c-1.95117 -1.95215 -4.51172 -2.92871 -7.07031 -2.92871c-2.55957 0 -5.11816 0.976562 -7.07129 2.92871l-57.8008 57.8018
c-36.748 -23.9658 -79.665 -36.833 -124.566 -36.833c-44.6826 0 -87.4014 12.7422 -124.031 36.4844l-57.4512 -57.4531c-1.95215 -1.95215 -4.5127 -2.92871 -7.07129 -2.92871s-5.11816 0.976562 -7.07129 2.92871c-3.9043 3.90625 -3.9043 10.2383 0 14.1436
l55.0742 55.0742c-7.36816 5.7627 -14.4316 12.0107 -21.1514 18.7295c-43.1914 43.1924 -66.9785 100.62 -66.9785 161.703s23.7871 118.511 66.9785 161.703c43.1924 43.1914 100.62 66.9785 161.703 66.9785c57.375 0 111.587 -21.0332 153.76 -59.418l41.8066 41.9199
v38.2373c0 5.52344 4.47656 10 10 10c5.52246 0 10 -4.47656 10 -10v-32.3711h32.0107zM375.792 225.055c-5.52051 20.3721 -15.7031 39.2598 -29.6445 55.165l-41.2324 -41.3438c10.998 -13.8242 17.5918 -31.2998 17.5918 -50.2969
c0 -44.6377 -36.3145 -80.9531 -80.9531 -80.9531c-44.6377 0 -80.9531 36.3154 -80.9531 80.9531s36.3164 80.9531 80.9531 80.9531c18.4463 0 35.4619 -6.21484 49.0898 -16.6436l41.2852 41.3975c-25.1729 21.583 -56.8955 33.3623 -90.375 33.3623
c-76.6826 0 -139.068 -62.3877 -139.068 -139.069s62.3857 -139.069 139.068 -139.069c76.6836 0 139.069 62.3867 139.069 139.069c0 12.3789 -1.625 24.6514 -4.83105 36.4756zM235.828 183.764c-3.91113 3.90137 -3.91895 10.2324 -0.0195312 14.1436l40.5547 40.6641
c-9.87695 6.89844 -21.875 10.9609 -34.8105 10.9609c-33.6094 0 -60.9531 -27.3438 -60.9531 -60.9531s27.3438 -60.9531 60.9531 -60.9531c33.6104 0 60.9531 27.3438 60.9531 60.9531c0 13.4688 -4.39844 25.9248 -11.8252 36.0244l-40.71 -40.8203
c-1.9541 -1.95898 -4.51758 -2.93848 -7.08105 -2.93848c-2.55469 0 -5.10938 0.973633 -7.06152 2.91895zM409.22 314.36c0 5.52246 4.47754 10 10 10c5.52344 0 10 -4.47754 10 -10c0 -5.52344 -4.47656 -10 -10 -10c-5.52246 0 -10 4.47656 -10 10z" />
    <glyph glyph-name="006-horse" unicode="&#xf105;" 
d="M189.348 287.728h-0.0253906c-2.19141 0 -4.88281 1.52734 -6.00586 3.4082c-2.66406 4.48438 -5.45605 9.32422 -8.40039 14.5479c-0.473633 0.866211 -0.857422 2.37012 -0.857422 3.35742c0 3.86328 3.13574 7 7 7c2.22461 0 4.93652 -1.56152 6.05371 -3.48535
c2.87988 -5.11133 5.61133 -9.83594 8.23535 -14.2354c0.547852 -0.916016 0.992188 -2.52539 0.992188 -3.59277c0 -3.85938 -3.13281 -6.99512 -6.99219 -7zM483.228 44.332c5.39355 -2.95898 9.77148 -10.3525 9.77148 -16.5039
c0 -5.58008 -3.77539 -12.6104 -8.42676 -15.6924c-55.8447 -36.3115 -139.156 -57.1357 -228.572 -57.1357s-172.728 20.8242 -228.572 57.1162c-4.65137 3.08203 -8.42676 10.1123 -8.42676 15.6914c0 6.15234 4.37793 13.5459 9.77148 16.5039
c2.33594 1.27051 6.38965 2.30078 9.04883 2.30078c3.08887 0 7.70117 -1.3623 10.2949 -3.04004c19.5352 -12.1338 53.3896 -26.918 75.5674 -33l30.6729 86.6318c-4.77051 9.79883 -8.64258 26.5977 -8.64258 37.4961c0 7.97168 2.12109 20.5527 4.73438 28.084
c-2.57031 4.97168 -6.07227 13.3223 -7.81641 18.6396c-1.80762 5.21582 -3.46777 10.9482 -5.22754 17.0166c-5.5166 18.9951 -12.3721 42.6396 -24.3721 47.5596c-4.78027 2 -10.6318 0.97168 -17.8604 -3.07227c-25.5996 -14.248 -50.5361 -16.7393 -63.5996 -6.37207
c-6.9707 6.3584 -12.6279 19.1758 -12.6279 28.6104c0 0.572266 0.0253906 1.50195 0.0556641 2.07422c0 17.8682 13.832 31.7715 28.4756 46.4678c5.16406 5.19238 10.5088 10.5645 15.4209 16.2637c4.35156 5.06445 8.35156 10.708 12.5791 16.6846
c4.6084 6.92773 13 17.4453 18.7324 23.4756c-1.81641 25.6006 3.06445 44.708 14.6885 56.708c1.13867 1.17578 3.39062 2.13086 5.02832 2.13086c1.4502 0 3.51465 -0.775391 4.60742 -1.73047c5.56445 -5.17676 13.6104 -14.4365 17.96 -20.668
c4.25293 4.21289 12.2822 9.25977 17.9238 11.2637c0.609375 0.208984 1.62695 0.378906 2.27148 0.378906c2.60645 0 5.51367 -1.96191 6.48828 -4.37891c1.09961 -2.90527 2.61719 -7.70605 3.38867 -10.7158c44.3037 -8.83984 64.4395 -51.7842 82.2119 -89.9199
l3.7959 -8.1084c4.68848 -9.91211 13.7754 -25.1191 20.2842 -33.9434h75.6553c0.782227 0.0205078 2.05176 0.0371094 2.83398 0.0371094c12.1816 0 31.1279 -3.95898 42.29 -8.83789c22.792 12.7559 44.3965 14.8359 59.7119 5.60059
c13.9199 -8.39258 20.8926 -25.2041 19.6328 -47.3398c-3.47656 -61.292 -0.756836 -63.6084 10.7031 -73.3604c2.12793 -1.8125 4.5 -3.83203 7.12012 -6.32031c1.21094 -1.14258 2.19238 -3.4209 2.19238 -5.08594c0 -2.52637 -1.87793 -5.39746 -4.19238 -6.41016
c-5.85352 -2.79004 -15.8633 -5.24707 -22.3438 -5.4834c-0.119141 -0.00195312 -0.3125 -0.00390625 -0.431641 -0.00390625c-4.20508 0 -10.5801 1.69727 -14.2285 3.78809c-15.4395 8.96777 -19.7236 31.1152 -22.8359 57.8672
c-2.43555 -30.6836 -11.8516 -47.4795 -31.6357 -56.3994l43.4639 -98.5684c6.57617 3.21484 16.9219 9.02148 23.0918 12.96c2.59375 1.67871 7.20605 3.04004 10.2949 3.04004c2.65918 0 6.71289 -1.03027 9.04883 -2.2998zM446.128 255.932v0.0205078
c-9.35156 5.64746 -23.416 4.5918 -38.7998 -2.47168c5.24512 -4.4707 11.876 -13.1631 14.7998 -19.4043c7.36816 -1.47656 16.3477 -7.06055 18.3477 -25.0322c0.349609 -3.16536 0.689779 -6.30794 1.02051 -9.42773c2.91602 -27.2881 5.66406 -53.04 17.3359 -59.8398
c2.16406 -1.05762 5.875 -1.91504 8.2832 -1.91504c1.44727 0 3.75195 0.320312 5.14453 0.714844c-13.7559 12.1436 -16.7881 20.4717 -13.248 82.7998c0.963867 16.9561 -3.49219 28.8916 -12.8838 34.5557zM248.08 258.9v-28.46
c0.0107422 -9.37305 7.62695 -16.9893 17 -17h57.8398c9.37305 0.0107422 16.9893 7.62695 17 17v26.7197h-76.2803c-0.285156 -0.00488281 -0.749023 -0.00878906 -1.03418 -0.00878906c-4.06738 0 -10.5742 0.783203 -14.5254 1.74902zM236.08 307.3h0.00390625
c-16.1963 34.7598 -32.9561 70.5117 -66.3359 80.6279c0.603516 -3.84375 1.0918 -8.00781 1.4043 -12.4561c7.81445 -4.34668 17.3125 -14.4102 21.1992 -22.4639c26.084 -48.5322 39.1201 -70.0918 52.2607 -77.7314c2.78223 -1.58789 7.62109 -3.20117 10.7998 -3.60059
c-4.81543 7.27148 -11.7588 19.5664 -15.5 27.4443c-1.28027 2.70801 -2.54785 5.43555 -3.83203 8.17969zM114.612 411.408c-3.78125 -7.39453 -6.85059 -20.1357 -6.85059 -28.4404c0 -0.691406 0.0224609 -1.81348 0.0498047 -2.50391
c3.40723 1.8623 9.25977 3.99805 13.0645 4.76855c1.56641 2.93359 4.38184 7.53027 6.28418 10.2598c-3.13379 4.65332 -8.75488 11.7832 -12.5479 15.916zM168.612 95.5039l-31.3682 -88.5684c5.87435 -1.47982 11.8597 -2.84375 17.9561 -4.0918l47.5996 132.168
c0.919922 2.55664 3.87012 4.63184 6.58691 4.63184c0.415039 0 1.08008 -0.0712891 1.48535 -0.15918c16.9473 -3.17871 44.6963 -5.75879 61.9395 -5.75879c1.95117 0 5.11816 0.0332031 7.06836 0.0742188l16.124 -0.0400391h19.9717
c-3.42285 7.77637 -7.06445 20.9297 -8.12793 29.3604c-0.0449219 0.291992 -0.0810547 0.767578 -0.0810547 1.06348c0 3.86328 3.13574 7 7 7c3.45898 0 6.5752 -2.79004 6.95703 -6.22754c1.19238 -10.1973 6.44336 -25.6211 11.7207 -34.4277v-0.0283203
c7.30176 -12.1836 24.1582 -25.7334 37.6279 -30.2441c1.8125 -0.46875 3.89844 -2.23926 4.65527 -3.95215l34.6445 -78.6074c6.10352 2.20801 11.9756 4.58789 17.7041 7.06738l-46.5205 105.492c-0.328125 0.745117 -0.59375 2.00977 -0.59375 2.82324
c0 2.80859 2.16699 5.79297 4.83789 6.66113c18.0283 5.84766 28.6807 17.0479 29.7646 56.9678c-0.00488281 38.9404 -20.2246 58.7275 -61.6445 60.2998v-26.5674c-0.0175781 -17.0947 -13.9053 -30.9824 -31 -31h-57.8438c-17.0947 0.0175781 -30.9824 13.9053 -31 31
v35.0234c-14.416 10.2324 -27.5645 31.5762 -54.168 81.1084c-0.0644531 0.116211 -0.124023 0.235352 -0.180664 0.355469c-3.35254 6.78418 -11.6504 14.8584 -18.5234 18.0244c-2.02441 1.02051 -3.74414 3.68652 -3.83984 5.95215
c-0.380859 8.60156 -2.56836 22.3145 -4.88379 30.6074c-3.47949 -2.2666 -8.37695 -6.7627 -10.9326 -10.0361c-0.139648 -0.214844 -0.390625 -0.545898 -0.55957 -0.739258c-2.97363 -3.87012 -7.11426 -10.5742 -9.24414 -14.9639
c-0.927734 -1.87305 -3.36523 -3.59277 -5.44043 -3.84082c-6.50488 -0.915039 -15.6084 -5.37402 -20.3193 -9.95117l-0.200195 -0.18457c-5.88672 -5.85449 -14.3467 -16.248 -18.8838 -23.2002c-4.23633 -5.97949 -8.60059 -12.1602 -13.4004 -17.7236
c-5.24023 -6.08398 -10.7598 -11.6357 -16.0996 -17.0078c-13.0928 -13.1641 -24.4004 -24.5322 -24.4004 -36.624c-0.0449219 -0.553711 -0.0810547 -1.4541 -0.0810547 -2.00977c0 -5.81836 3.39062 -13.8281 7.56934 -17.8789
c6.83984 -5.41992 25.6201 -4.5957 47.876 7.80469c11.0479 6.16797 21.1318 7.45605 30 3.81934c18.2393 -7.4873 25.8154 -33.5879 32.5 -56.6113c1.70801 -5.91211 3.32422 -11.46 5.00391 -16.3125c0.735677 -2.09049 1.49284 -4.15983 2.27148 -6.20801
c1.73047 3.10449 4.81641 7.96777 6.88867 10.8564c1.15332 1.64941 3.72363 2.98926 5.73633 2.98926c3.86426 0 7 -3.13672 7 -7c0 -1.27637 -0.616211 -3.14453 -1.37695 -4.16992c-4.01367 -5.50586 -9.24512 -15.1416 -11.6758 -21.5078
c-0.015625 -0.0361328 -0.0556641 -0.0595703 -0.0556641 -0.0957031c-2.76562 -6.94727 -5.01074 -18.6543 -5.01074 -26.1318c0 -9.74805 3.72363 -24.6416 8.31055 -33.2441c0.581055 -0.94043 1.05273 -2.59961 1.05273 -3.70508
c0 -0.662109 -0.177734 -1.70605 -0.396484 -2.33105zM323.708 119.804h-0.015625c-8.59277 -0.0634766 -17.8125 -0.0439453 -27.752 -0.0234375l-16.0723 0.0234375c-1.63281 -0.0253906 -4.28223 -0.046875 -5.91504 -0.046875
c-16.6748 0 -43.5664 2.17188 -60.0254 4.84668l-44.7998 -124.38c23.542 -3.9873 62.0273 -7.22461 85.9053 -7.22461c0.266602 0 0.700195 0 0.966797 0.000976562c1.10938 -0.00976562 2.91113 -0.0166016 4.02051 -0.0166016c38.6445 0 100.034 9.05664 137.031 20.2168
l-32.8555 74.6035c-13.9941 5.26562 -32.1328 19.6016 -40.4883 32zM476.952 23.8721h-0.0166016c1.13965 0.777344 2.06445 2.52832 2.06445 3.9082v0.0595703c0 0.0205078 0.000976562 0.0537109 0.000976562 0.0732422c0 1.54785 -1.1084 3.39648 -2.47266 4.12695
c-0.607422 0.337891 -1.66309 0.612305 -2.35742 0.612305c-0.81543 0 -2.02637 -0.369141 -2.70312 -0.824219c-52.0479 -33.5762 -130.58 -52.8281 -215.468 -52.8281s-163.42 19.252 -215.468 52.8281c-0.672852 0.448242 -1.87598 0.817383 -2.68457 0.824219
c-0.697266 -0.00585938 -1.76172 -0.280273 -2.37598 -0.612305c-1.36426 -0.730469 -2.47266 -2.5791 -2.47266 -4.12695c0 -0.0195312 0.000976562 -0.0527344 0.000976562 -0.0732422v-0.0595703c0 -1.37988 0.924805 -3.13086 2.06445 -3.9082
c53.6318 -34.8721 134.159 -54.8721 220.936 -54.8721s167.304 20 220.952 54.8721zM125.248 344.748c10.4766 -0.0107422 18.9893 -8.52344 19 -19c0 -10.4883 -8.51172 -19 -19 -19s-19 8.51172 -19 19s8.51172 19 19 19v0zM125.248 320.748
c2.75586 0.00390625 4.99512 2.24414 5 5c0 2.75977 -2.24023 5 -5 5s-5 -2.24023 -5 -5s2.24023 -5 5 -5v0z" />
    </font>
</defs>
</svg>
